&title=Golden Route
&artist=Duca
&first=1.18
&lv_5=13+
&des_5=Imgct
&inote_5=
(125){16},1xh[4:1]/6xh[4:1],,,,,,,{2}8xh[16:5]/3xh[16:5],
5xh[16:5]/4xh[16:5],{16}6x/4x,,,2,,5,3,5,
{2}4xh[16:5]/2xh[16:5],7xh[16:5]/5xh[16:5],
5xh[16:5]/4xh[16:5],{16}8x/1x,,,5,4,6,3,7,
2x/8xh[2:1],,,1,,2,,,3h[2:1],,,4,,5,,,6h[2:1],
,,7,,8,,,1h[2:1],,,2,,3,,,4h[2:1],
,,3,,2,,,1h[16:3],,,8,{32},7,,2,,8,,1,
,7b/2b,{4},,{16},{64},,{96},{24}E1/B8/B1,,,B5/B4/E5,{48},,,,,,,,,,,{16}7h[8:1],
,1,,2h[8:1],,6,{8}6h[8:1],{16}3,3h[8:1],,7h[8:1],4,4,
,3h[8:1],,5,,6h[8:1],,2,{8}2h[8:1],{16}7,7h[8:1],,1h[8:1],8,8,
,6h[8:1],,8,,2h[8:1],,4,{8}4h[8:1],{16}3,3h[8:1],,6,{48},,{12}7,
{48},,,{16}4h[8:1],,6,,7h[8:1],,5,{8}5h[8:1],{16}8,8h[8:1],,4,7,7,
,2x/8-4[12:1],,7x/1x,,8,2,2,,1/2-6[12:1],,3/8,,2,7,7,
,4x/6x-1[12:1],,5x/7x,,6,4,4,,5/3-8[12:1],,4/2,,3,5,5,
,7x/6x-3[12:1],,5x/8x,,6,1,1,,3/2-7[12:1],,4/1,,2,5,5,
,6>4[8:1],,4>2[8:1],,2<8[8:1],,8<6v4[48:11],{32},E1,,,,B1,,,,B2,,,,E3,,,,,{16}3/5h[4:1],
,2,,1,,8-3[12:1],{8}4,{16}4,8,,5,,6,
,7/4h[4:1],,8,,1,,1-6[8:1],{8}5,{16}5,1,,4,,3,
,8/2,,7,,6,,5-1[8:1],{8}3,{16}7,5,,8,,7,
,4/6,,3,,2,,1-5[12:1],{8}7,{16}3,1,,3,,2,
,6-3[12:1]/1-4[12:1],,,,1/6,,,2,,,5,,1/7,,8/6,
,7-2[12:1]/5-8[12:1],,,,5/7,,,3,,,6,,1-5-7[16:3]/8-4-2[16:3],,3/6,
,1/8,,,,,,4,3/6>3[16:3],,,3-8[8:1],,8-5[8:1],,5-8[8:1],
,1x,,2x,,3x,,4b,8,5b,8,4b,8,3b,8,2b,
8,8-4[12:1]/1-5[12:1],,1/8,,,,,,3v8[12:1]/6v1[12:1],,3/6,,,,,,2-5[12:1]/7-4[12:1],
,2/7,,,,,,2,,5h[16:3]/3h[16:3],,,,4/6,
,5-1[12:1]/6-2[12:1],,3/8,,,,,,7-3[12:1]/8-4[12:1],,2/5,,,,,,5-1[12:1]/4-8[12:1],
,2/7,,,,,,2/7,,3/6,,5/4,,7,
2,1/8,,7,,8/2,,1,7,2/7,,3,,4/6,,7,
,3/8,,2,,1/6,,4,2,5/2,,1,,2,,3,
,5h[8:1]/4>5[8:13],,,,5h[8:1],,,,5h[8:1],,,,5h[8:1],,,,4h[8:1],
,,,4h[8:1],,,,4h[8:1],,,,4h[8:1],,,,3h[8:1]/5-2-8-5[4:3],
,,,5h[8:1],,,,7h[8:1],,,,1h[8:1],,,,3b,
,,,,,,,E8/E2/E6/E4/C,,,,2b/7b,,,,7/1-5[12:1],
,8-6-2[16:3],,1,,8,4,,,5-1[8:1],,1-7[16:1],,5,
6,,,4-7[8:1],,7>4[4:1],,4,1,,,,,,,2<7[48:5],
,1,,2/6>3[48:5],,5,,6,8,,,7/3,,8/4,,5/1,
,6/2,,3,4,2b/5b,,6,5,4b/7b,,1,8,2b/7b,,,,3/5-8[8:1],
,4-2-6[16:3],,5,,4,1,,,1-6[8:1],,6-4[32:3],,1,
3,,,3-7[8:1],,7-5>2[4:1],,3,5,,,,,6<1[8:1],,1>4[8:1],
,4>5[32:23],,,{4}Cf,{16},,,,,,,,,,,4-2[16:1]/5-7[16:1],
,4h[8:1]/5h[8:1],{48},,,,,,,,,,,,,,1x/8x,,,,,,,2x/7x,,,,,,{16}4x/5x,
{32}3bxh[24:7]/6bxh[24:7],,,,,,,,,,,,,,,6xh[16:5]/8xh[16:5],,,,,,,,,,,,,,,,1xh[16:5]/3xh[16:5],
,,,,,,,,,,,,,,,4x/5x,,,,,,3h[8:1],,,,6,,3,,6,,7xh[16:5]/4xh[16:5],
,,,,,,,,,,,,,,,5xh[16:5]/2xh[16:5],,,,,,,,,,,,,,,,8xh[16:5]/1xh[16:5],
,,,,,,,,,,,,,,,6x/3x,,,,,,1,,8,,2,,7,,3,,6x/4xh[2:1],
,,,,,5,,,,6,,,,,,7h[2:1],,,,,,8,,,,1,,,,,,2h[2:1],
,,,,,3,,,,4,,,,,,5h[2:1],,,,,,6,,,,7,,,,,,8h[2:1],
,,,,,7,,,,6,,,,,,5h[16:3],,,,,,4,,,,3,,6,,4,,5,
{96},,,3b/6b,E7/E3,,{48}B7/B2,B1/B8,E1,,,,,,,,,,,,,,,,,,,,5,,4,,5,,4,,6,,3,,6,,3,,7,,2,,7,,2,
{96},,,1x/8x,,,,,,,,,,,{48}1,,,,,,2-5[0.24##0.16],,,,,,2,,,{24}7-4[0.24##0.16],{48},,,,7,,,3,,,,,,2,,,,,,7,,,,,,1/8,
,,,,,1,,,,,,6-1[0.24##0.16],,,,,,6,,,{24}2-5[0.24##0.16],{48},,,,2,,,1,,,,,,,{24}7,{48},,,3/6,,,,,,,{24}5,
{48},4,,,5,,,3,,,{24}5,{48},2,,,5,,,1,,,{24}5,{48},1,,,6,,,1,,,{24}7,{48},1,,,{12}8,
{48},1,,8,,1,,8,,2b,,8,,1,,8,,1,,7b,,1,,8,,1,,8,,1,,6b,,2,,7,,2,,7,,3,,6,,3,,6,
,4/5,,,,,,6/3,,,,,,7/2,,,,,,1/6,,,{24}1/6,{48},,,,8/3,,,8/3,,,,,,2/7,,,,,,6/1,,,,,,4/5,
,,,,,3/6,,,,,,7/2,,,,,,7/4,,,{24}4/7,{48},,,,2/5,,,2/5,,,,,,1,,,8,,,1,,,{24}8,
,7b/2b,{48},,,,,,,1b/5b,,,,,,,,,{12}8b/4b,{24},8,{48},3,,,8,,,1,,,{24}8,{48},2,,,8,,,3,
,,{24}6,{48},3,,,5,,,3,,,{24}7,{48},3,,,6,,,4,,,{24}6,{48},2,,,6,,,3,,,{24}6,{48},4,,,5,,,4,
,,{24}3b/6b,{48},,,,,,,8b/3b,,,,,,,,,{12}1b/6b,{24},,,{8}E2,{16},B7,,B6,
{48},,{24}B4,{48},E4,,,,,,E1,B8,B7,{24}E7,{48},B2,,B3,,,{24}B5,{48},E6,,,,,E2,B1,,,{24}C,{48},,A8,D1,A1,D2,A2,D3,A3,D4,,,,,{24}5b/7b,
{48},,,,,,,1b/8b,,,,,,,,,{12}2b/4b,{48},,,,,4,,5,,{16}4,{48},6/3,,,,8,7,8,,,{24}6,
,,1,2,1,2,{48},8,,,8,,,2,,,{24}2,{48},6,,,{12}6,{48}4,,,4,,,{24}1x,8x,7x,6x/5x,4x,
3x,2xh[96:47]/1xh[96:47],{4},,{16},{96},{32}8w4[8:5],,,,8,,,,8b,{4},,,{16},{64},,{96},{48}A6,
D7,{96},,,,,,,,,,,,,,,,,,,{32}1-5[4:1],
,,,,,,,,,,,,,,,8-4[4:1],,,,,,,,,,,,,,,,5>2[4:1],
,,,,,,,,,,,,,,,4<7[4:1],,,,,,,,,,,,,,,,2q5[4:1],
,,,,,,,,,,,,,,,7p4[4:1],,,,,,,,,,,,,,,,3-6-1-4-7[2:1],
,,,,,,,,,,,,,,,7-3[48:5],,,,,,,,,,,,,,,,8/B1,
,,,,,,,7/B2,,,,,,,,6/B3,,,,,,,,5/B4,,,,,,,,4/B5,
,,,,,,,3/B6,,,,,,,,2/B7,,,,,,,,1/B8,,,,,,,,1/2,
,,,,,,,1/8,,,,,,,,8/7,,,,7,,5,,6,,4,,5,,3,
,4b/2b,,,,,,,,7b/5b,,,,,,,,8/1,,7/2,,6/3,,5/4,,5/4,,6/3,,7/2,,8/1,
,2-6[12:1]/7-3[12:1],,,,,,,,2b/7b,,,,,,4,,4,,4,,5,,5,,5,,,,3,,,,7b/2b,
,,,6>3[8:1],,,,3z7[4:1],,,,6,,2,,,,,,,,,,,,,,1>4[48:5],,,,B2,
,,,1/8<5[48:5],,,,B7,,,,8,,3,,,,,,5/1,,,,6/2,,,,7/3,,,,8/4,
,,,6,,6,,4b/7b,,,,3,,3,,2b/5b,,,,1/8,,8/1,,2b/7b,,,,,,,,7/5-1[12:1],
,,,6-2-4[16:3],,,,5,,,,6,,8,,,,,,8-3[8:1],,,,3-5[32:3],,,,8,,5,
,,,,,7-3[8:1],,,,3-1-5[4:1],,,,7,,4,,,,,,,,,,3>8[8:1],,,,8<5[8:1],,,,5<4[4:3],
,,,,,Cf,{4},,,{16},,{32},2-4[16:1]/7-5[16:1],
,,,2h[8:1]/7h[8:1],,,,,,,,,,,,3x/6x,,,,1x/8x,,,,2x/7x,,6bxh[16:15]/3bxh[16:3],
,,,,,,,,,4bxh[8:1],,,,,,,,3bxh[8:1],,,,,,,,2bxh[8:1],,,,,,,,1,
,8,,1,,7,,1,,6,,1,,5,,2,,6,,3,,7,,4,,8,,3,,7b/2b,
,,,,,E8,,,,E7,,,,E2,,E3,,,,,,E1,,,,C,,,,E6/E4,,E7/E3,
,2xh[4:1]/7xh[4:1],,,,,,,,,,,,,,8xh[16:5]/5xh[16:5],,,,,,,,,,,,,,,,1xh[16:5]/4xh[16:5],
,,,,,,,,,,,,,,,8x/1x,,,,,,4,,,,6,,5,,6,,7xh[16:5]/4xh[16:5],
,,,,,,,,,,,,,,,5xh[16:5]/2xh[16:5],,,,,,,,,,,,,,,,8xh[16:5]/1xh[16:5],
,,,,,,,,,,,,,,,6x/3x,,,,,,6,,5,,7,,4,,8,,3x/1xh[2:1],
,,,,,2,,,,3,,,,,,4h[2:1],,,,,,5,,,,6,,,,,,7h[2:1],
,,,,,8,,,,1,,,,,,2h[2:1],,,,,,3,,,,4,,,,,,5h[2:1],
,,,,,4,,,,3,,,,,,2h[16:3],,,,,,1,,,,8,,3,,7,,4,
,7/4,,,,,,,,6/3,,,,,,,,5/2,{16}B2,,,{8}6b/3b,7b/4b,
{32}8b/5b,{64},,,,,,,,,,,,,,,,5x,4x,3x,{192}1b<6b[48:79],2xh[96:151],{1},{4},,{16},,,{192},{32}1x,
2x,3x,4x,5x,
E
