&title=君の夜をくれ
&artist=25時、ナイトコードで
&first=0
&des_5=NaTsuYu
&lv_5=12+
&des=NaTsuYu
&wholebpm=150
&inote_5=(80){1},{8},
{8},,,,6h[16:4],,,,
{8}5h[16:4],,,,4h[16:4],,,,
{8}3h[16:4],,,,4h[16:4],,,,
{8}5h[16:4],,,,6h[16:4],,,,
{8},,7h[16:4],,E1,E2,E3,E4,
{8}2h[16:4]/E5,E6,E7,E8,1h[16:4]/E1,E2,E3,E4,
{8}E5,E6,E7,E8,8h[16:4]/E1,,,,
{8}7h[16:4],,,,1h[16:4],,
{16},,7h[16:3],,
{16},8,,1,1,,2h[16:4],,
{16},,1,,,,8h[16:4],,
{16},,1,,1h[16:6],,,,
{16},,,,,,6h[16:3],,
{16},7,,1,1,,3h[16:4],,
{16},,2,,,,1,,
{16}8qq4[16:6],,1,,8,,,,
{16},,,,{24},,,5,,5,
{24}3,,3h[24:3],,,6,2,,1,7,,8,
{24}1h[24:2],,8bx,,,,,,8,{16}1h[16:2],,
{16}7h[16:2],,2h[16:2],,{24}6h[24:2],,2bx,,,B6,
{24}B4,,B8,B2,,,1,,8h[24:4],,,,
{24}2,,7,3h[24:2],,6,,1/5,,,2/6,,
{24},3/7,,,,,,,4,5,,4,
{24}6h[24:2],,3h[24:3],,,7,2,,A4,B5,,B1,
{24}A8,,Ch[24:4],,,,,,5,3,,5,
{24}4,,6,2h[24:3],,,7,,1,8h[24:3],,,
{24}2h[24:2],,1,,,7,1h[24:2],,8,,,,
{24}6h[24:2],,2,,,5,3h[24:2],,4,,A3,E5,
{24},E1,A7,,,,8h[24:2],,1h[24:3],,,7,
{24}2h[24:2],,6h[24:4],,,,5h[24:2],,4h[24:4],,,,
{24}3h[24:2],,5bx,,,,,,2,8h[24:5],,,
{24},,1,8,,1,7h[24:9],,,,,,
{24},,,1>4[16:4],,,,,,
{16}1/8,,,,7<4[16:4],,,,
{16}1/7,,,,1-4[16:2],,1q5[16:2],,
{16}1xp5[16:2],,1x-6[16:2],,1x,,1x,,
{16},,8-3[16:2],,8-5[16:2],,8x-4[16:2],,
{16}8x-6[16:2],,8x-2[16:2],,8x,,8x,,
{16},,1-5[16:2],,1<6[16:2],,1x>4[16:2],,
{16}1xp5[16:2],,1xq5[16:2],,1x,,1x,,
{16},,,,5qq5[16:2]*pp5[16:2],,,,
{16}5x,,,,4qq4[16:2]*pp4[16:2],,,,
{16}4x,,,,,,4/5,,
{16}4/5,,,,4x/8x,3x/7x,2x/6x,,
{16},,,,,,,1,
{16}1/8-3[16:2],,7,,8/1-6[16:2],,2,,
{16}1/8-4[16:2],,7,,8/1-5-1-5-1[16:8],,2,,
{16}A1,,A5,,A1,,A5,,
{16}A1/8w4b[16:2],,,,8b,,,1,
{16}1-3-5[16:2],,8,,7q3[16:2],,6,6bx,
{16},,,,7q3[16:2],,8,,
{16}1<6[16:2],,2,,3pp8[16:4],,4,4bx,
{16},,,7,7v2[16:2],,6,,
{16}5<8[16:2],,4,,3q7[16:2],,2,2bx,
{16},,,,2,,1<6[16:2],,
{16}8,,1>4[16:2],3x,,,1<4[16:3],7x,
{16},,1,,3x,3x,,4,
{16}4>1[16:2],,5,,6v1[16:2],,7,7bx,
{16},,,,1-4[16:2]/7,,2,,
{16}1/8-5[16:2],,7,,8/2-5[16:2],,3,,
{16}2/7,,,,1,,8,,
{16},,,,3bx/6bx,,,1,
{16}1,,6/7,,4qq3[16:4]/5,,4/5,,
{16},,,,E7,,C,,
{16}E3,,,,4/5<1[16:2],,,,
{16}4>1[16:2]/5,,,,4/5<7[16:2],,,,
{16}4/5,,,,{24}A2,B3,A4,A8,B7,A6,
{16}C,,,,4-8[16:2]/5,,,,
{16}4/5-1[16:2],,,,4/5,,,,
{32}E4,B4,B5,E6/Ch[16:21],,,,,,,,,,,,,
{16},,,,,,,,
