&title=Testify(0207VER)
&artist=void (Mournfinale) feat. 星熊南巫
&first=0.6
&des=KuroNeko vs ShiroNeko
&lv_5=14
&lv_6=14+
&lv_7=12?
&inote_4=
&inote_5=(178)
{1},,,
{8}1b/8b,,,,
{2}4h[2:1],3h[2:1],2h[2:1],{4}8<2[8:14],1,2,3,4h[1:1],,,,,4/5,8/1,2/7,{16}6h[4:2]/3,4,5,,{4},1,2,{24}3h[16:8]/6,7,8,{8}1,,,5w1[8:1],,,,
{8}7h[8:3]/3b,,8,8,2h[8:3]/6h[8:1],,1,1,7h[8:3]/4h[8:1],,8,8,2h[8:3]/5h[8:1],,1,1,
6h[8:3]/3h[8:1],,7,5,4h[8:3]/8h[8:1],,5,3,7h[8:3]/2h[8:1],,6,8,1h[8:3]/5h[8:1],,8,2,
{8}4>5[4:7],,6,7,,,7,8,,,1,2,,,2,3,4h[1:1],,8-3[8:1],8,,,1-6[8:1],1,,,8,8,
{16}3,6,4,5,2,8,4,6,1>4[8:1],,{8}1,8,7,6<1[8:1],6,5,4,3<6[8:1],3,2,1,8>3[8:1],8,7,6,
5>2[8:1],5,6,7,8<5[8:1],8,1,2,3>8[8:1],3,4,5,6>3[8:1],6,7,8,
{16}2>5[8:1],1,2,,8,,7,,6<1[8:1],5,6,,4,,3,,3<6[8:1],2,3,,1,,8,,7>2[8:1],6,7,,5,,4
,,3>8[8:1],4,2,,7,,7,,6>3[8:1],5,7,,2,,2,,1<6[8:1],8,2,,5,,5,,4>1[8:1],5,3,,8,,8
,,
{16}3h[16:3]/6h[16:3],,,,1b/8b,,,,6,5,6,,3,4,3,,6,5,7,,3,4,2,,6,5,7,,3,4,2,5,1,2,3,4,7,6,5,4,2h[8:1],,8,1,8,,2/7,,3<6[8:1],,3,,7,,7,,1,8,2,7,3,6,4,5,2-5[8:1],,1,8,2,,7,,8,7,6,5,1,2,3,4,7-4[8:1],,8,1,7,,2,,1,2,3,4,8,7,6,5,4/3,,1,8,2h[8:1],,8,1,7h[8:1],,1,8,3h[8:1],,6,,1/8,,6,4,8,,3,5,1,,4/5,,2b/7b,,,,
{16}5/6,,4/5,,3/4<7[16:2],,2,,4/8,1,2,3,8,1,2,3,4,5,6,7,1/8,2,3,4,6-1[12:1],,6,,3-8[12:1],,3,,7,,5,4,5,,2,1,2-4[12:1],,3,,2/8-4[12:1],,7,,8/1-5[12:1],,2,,1/7-3[8:1],,6,,7/1bw5[8:1],,,,,,,,3>8[16:2]/7,,4/8,,3/7,6,5,4,7,6,5,4,3/7,,1/8,,2,4,3,4,2,,6,5,7<5[12:1],,,,7/1,,2,,3/4,,3/4,,2/6,,1/8,,2/7,,5/4,,2/8,,4/6,,1/7,,3/5,,4/8,,6<4[4:1]/2<4[4:1],5/3,4,,
{8},,,1b/8b,7p3[8:1],,8/7,1>4[8:1],,8/1,{16}7,5,{8}6,8/4,{16}2,4,3,,{8}7/1V74[8:1]*-4[8:1],,,,5/3,2q6[8:1],,1/2,8<5[8:1],,1/8,3-8[8:1]*V58[8:1],,3,,,{32}1,2,3,4,5,6,7,8,1-5[8:1],2,3,4,5,6,7,8,{8}1,,,2h[8:3]/7h[8:3],,,,,
{12}3,4,2,6,5,7,2,1,3,7,8,6,{16}3,4,3,4,2,5,2,5,1,6,1,6,8,7,8,7,{24}1,2,3,4,5,6,2,3,4,5,6,7,
{8}8b/4b,,,,3h[4:1]/4h[4:1],,,4h[8:3]/2h[4:1],,,2,,5h[4:1]/6h[4:1],,,
5h[8:3]/7h[4:1],,,7,,1h[4:1]/8h[4:1],,,1>8[8:10]/8<1[8:10],,,,,,,,,,,,,
3h[4:1]/5h[4:1],,,5h[8:3]/2h[4:1],,,2,,4h[4:1]/6h[4:1],,,
4h[8:3]/7h[4:1],,,7,,1h[4:1]/8h[4:1],,,2h[4:1]/7h[4:1],,,3V15[8:6]/6V84[8:6],,,,,,,,,,
{8}7V53[4:1]/3h[8:1],,2,2,1V35[4:1],,6,7,8V64[4:1],,4,3,2,,1/8,2/7,
6V82[4:1]/3,,3,3,4V28[4:1],,7,6,5V71[4:1],,1,2,3,,4/5,4/5,
3V15[4:1]/6,3,8,7,6V48[4:1],6,3,2,1V73[4:1],1,6,5,4-1[8:1]*-8[8:1],4,4,,
6V84[4:1],6,1,2,3V51[4:1],3,6,7,8V26[4:1],8,3,4,5w1[8:1],5,5b,,
{16}7/3,,2-4[8:1],1,,1,2,,7h[8:1],,1-3[8:1],8,,8,1,,6h[8:1],,8-2[8:1],7,,7,8,,{16}5,6,7,8,{16}4,5,4,5,{12}3,4,2,7,8,6,{16}2,4,3,5,4,6,5,7,8,6,1,7,2,8,3,1,4,5,4,5,3,6,3,6,2h[8:1],,7-5[8:1],8,,8,7,,2h[8:1],,8-6[8:1],1,,1,8,,3h[8:1],,1-7[8:1],2,,2,1,,4h[8:1],,6,5,6,5,6,5,7h[8:1],,{24}1,2,3,4h[8:1],,,2,3,4,{16}5h[8:1],,2,7,1,8,1,8,2h[8:1],,{24}8,7,6,5h[8:1],,,7,6,5,4,3,2,1,8,7,6,5,4,3,2,1,{16}8b/7b,,6,5,,5,7,,1/8,,3,4,,4,2,,1/8,,
6,4,,4,8,,1/7,,3,5,,5,1,,2/8,,3,4,2,6,5,7,{24}2,3,4,7,6,5,1-5[2:1],2,3,8,7,6,1h[8:3],,,,,,,,,,,,
{8}1bw5[8:1],,1b,,,2b/6b,,8b/4b,,{16}4,5,2,1,2,1,3,8,3,8,4,7,4,7,5,6,5,6,3,4,3,4,
{8}2/5-7[12:1],,2,,3/8-6[12:1],,3,,{12}1,5,5,2,6,6,{16}1,2,3,4,8,7,6,5,3,3,4,2,,,6,6,5,7,,,3,4,5,6,4,8,3,7,2,6,1,5,{24}2,3,4,5,6,7,2,3,4,5,6,7,{12}2,2,1,3,3,1,4,4,1,5,5,1,{16}4,3,2,1,4,3,2,1,4,3,2,1,{24}7,8,7,8,7,8,
{16}7,,2b/6h[8:1],,,4b/8h[8:1],,,1h[8:1]/5b,,,3h[8:1]/7b,,,1b/8b,,,,4,5,,3/6,,,3,4,3,4,2,5,2,5,1,2,3,4,{12}8,8,1,{16}7,6,5,4,{12}1,1,8,{16}2,7,2,6,2,5,2,4,{24}2,3,4,5,6,7,2,3,4,5,6,7,{16}1,8,3,4,3,4,1,8,5,6,5,6,4,7,3,8,{12}2,2,2,4,4,4,6,6,6,8,8,8,{16}2,3,4,5,1,2,3,4,8,1,2,3,7,8,1,2,4,6,5,6,3,5,4,5,2,4,3,4,1,1,1,1,{32}2b/8b,3b/7b,4b/6b,5b,
{16},,2/8,,,,3/7,,2-5[8:1],1,,1,2,,6,,7-4[8:1],8,,8,7,,3,,8,1,8,1,8,1,{12}6,5,7,2,1,3,{16}7,5,6,4,5,3,4,2,1,3,8,2,7,1,6,8,7,5,6,4,5,3,4,2,8h[4:1],,,,{16}1b<6[16:1],,,{32}1b,2,3,4,{16},,8b>3[16:1],,,{32}8b,7,6,5,{16},,1b<6[16:1],,,{32}1b,2,3,4,,{16},,8b>3[16:1],,,{32}8b,7,6,{16}5,,1,,{24}1,2,3,4h[8:1],,,2,3,4,{16}5h[8:1],,{24}2,7,2,{16}8,1,8,1,8,,{24}8,7,6,5h[8:1],,,7,8,1,2,3,4,8,7,6,1,2,3,7,6,5,
{16}3,,2-5[8:1],1,,1,2,,6,,7-4[8:1],8,,8,7,,3,,8,8h[8:2],,6,5,4,3,8,1,7,2,6,3,5,,,3,4,3,2,,,6,5,6,7,,,1/2,1/2,,,7,8,7,5,,,2,1,3,3,6,5,7,7,1b<6[16:1],,,{32}1b,2,3,4,,,{16},,8b>3[16:1],,,{32}8b,7,6,5,{16},,,2/7,,1b,,{32}1b,2/8,3/7,4/6,5,,{16},8b,,{32}8b,7/1,6/2,5/3,4,,,,2/7,,,,{24}4/5,3,2,1,8,7,6/3,2,1,8,7,6,5/4,3,2,1,8,7,6/3,2,1,8,7,6,{12}2/5,2,3,4,4,5,{16}3,6,2,7,1,8,1,8,{1}1bV35[2:1]*V75[2:1],8bV64[2:1]*V24[2:1],2bV48[2:1]/5bV37[2:1],7bV51[2:1]/4bV62[2:1],{16},,3h[16:3],,,4h[16:3],,,5h[16:3],,,6h[16:3],,,7,,,,2h[16:3],,,4h[16:3],,,6h[16:3],,,8h[16:3],,,3,,1/2,,1/3,,,,7/8,,6/8,,,,1/2,,4/7,,,,7/8,,2/5,,,,{4}5s1[8:1]/4z8[8:1],,
{12}2b/7b,2b/7b,2b/7b,{16}1,8,5,6,
3,4,2,5,2,1,3,8,5,6,4,7,8,7,1,6,{12}2/5,3/5,4/5,4/5,6/4,7/4,{32}8,1,2,3,4,5,6,7,{24}8-6[8:1]/1,,,2,3,4,8-2[12:1],,,3,4,5,{16}8,,3,,8/1-3[8:1],,{24}7,6,5,1-7[12:1],,,6,5,4,{16}1,,6,,{24}1,2,3,7,6,5,1,8,1,8,1,8,{32}2/7h[8:4],3,4,5,6,,8,1,2,3,4,5,6,,8,1,2,3,4,5,6,7,8,1,{12}2/5,5,5,5/7,7,7,7/1,1,1,1/3,3,3,
{32}6,5,6,,4,,7,,3,,7,,2,1,2,,8,,3,,7,,3,,5,4,5,,3,,3,,8,1,8,,2,,7,,2,,6,,1,8,1,,{32}2/7,3,4,5,6,7,8,1,2/7,6,5,4,3,2,1,8,7/2,3/6,4h[8:1]/5h[8:1],,,,,,3/6,,,,2/7,,,,1/8,2/7,3/6,4h[12:1]/5h[12:1],,,,,3/6,,,,2/7,,,,1/8,2/7,3/6,4h[12:1]/5h[12:1],,,,,3/6,,,,2/7,,,,1h/8h,2h/7h,3h/6h,4h[12:1]/5h[12:1],,,,,3/6,,,,2/7,,,,1b/8b,2bpp8[1:2]/7bqq1[1:2],3b/6b,4b/5b,
&inote_6=(178)
{1},,,
{48}1b,28,37,46,5pp1[4:5],,,,,,,,,,,,,,,,,,,,
{32}4h[32:8],,,,,,,,,,,,,,,3h[32:8],,,,,,,,,,,,,,,,2h[32:16],,,,,,,,,,,,,,,,{4}8h[4:1],1,27,6/3qq6[32:33],5h[32:33],,,,,{32},{4}4/5,8/1,2/7,{24}6h[16:6]/3,4,5,,,,{16},,7,8,{4}1,2h[4:1]/1,{24}4,5w1[24:11],6,7,8,,,,,,,,{8},,,,
{24}7h[8:3]/3b,,,,,,{8}8,8,{24}2h[8:3]/5h[16:2],,,,,,{8}1,1,{24}7h[8:3]/5h[16:2],,,,,,{8}8,1,{24}2h[8:3]/4h[16:2],,,,,,{8}1,8,
{32}7h[16:6]/4h[16:2],,,,,,,,{8}6,8,{32}5h[16:2]/2h[8:3],,,,,,,,{8}3,1,{32}7h[8:3]/8h[16:2],,,,,,,,{8}5,3,{32}1h[8:1]/2h[16:4],,,,,,,,{8}5,{24}15,26,37,
{8}4b>5[4:7]/8b,,6,7,,,7,8,,,1,2,,,2,3h[16:18],,,8-4[8:1],8,,,2-6[8:1],2,,,4h[16:2],,
{16}56,4,3,2,5,6,7,8,{8}1>4[8:1],1,8,7,6<1[8:1],6,5,4,3<6[8:1],3,2,1,8>3[8:1],8,7,6,
5>2[8:1],5,6,7,8<5[8:1],8,1,2,3>8[8:1],3,4,5,6>3[8:1],6,7,8,
{16}2>5[8:1],1,2,,8,,7,,6<1[8:1],5,6,,4,,3,,3<6[8:1],2,3,,1,,8,,7>2[8:1],6,7,,5,,4
,,3>8[8:1],4,2,4,3,,7,,6>3[8:1],5,7,5,6,,2,,2<7[8:1],1,3,1,2,,6,,5<8[8:1],4,6,4,5,,1
,,
{16}1h[8:2],,,,{32}8b,72,63,5/4,,,,,{24}4/2h[16:4],,,{16},,{24}8h[16:4],,,{16},,5,4,3,2,8<1[16:5]/1,7,6,5h[16:5],,,,,,,5,,25,6,7,8,5,4,3,2,4h[8:1],,1,,25,,3/6,,7/4p7[8:1],,4,,6h[16:4],,,,8,1,2,3,45,6,7,8,2v5[8:1],,3,1,2,,,,84,7,6,5,43,2,1,8,6v1[8:1],,7,5,6,,,,28,3,4,5,8,7,6,5,4/3,,2>7[16:4],1,3,,2h[16:4],,,,,,81,2,3,4,56,,7,8,6,,15,,7v8[8:1]/3v4[8:1],,,,3b/7b,,,,
{16}5/6,,4/5,,3/4<7[16:2],,2,,4/8,1,2,3,8,1,2,3,4,5,6,7,1/8,2,3,4,6/5V37[8:2],,4,,3,,,,2,,1,8,1,2,3,4,8-4[8:1],,4-6[16:2],,8,,2,,2-5[8:1],,5V38[16:3],,2,,,,7bv2[8:1]*qq5[16:2],,,,,,,,3>8[16:2]/7,,4,,3/7,6,5,4,7,6,5,4,3/7,,1/8,,2,4,3,,46,,46,37,2>5[8:1]/8<5[8:1],,,,,,,,1b/7b,,7b<4[8:1]/1b,,25,,{24}3/7,2,1,{16}8h[16:4],,,,4b,,15,,3b/7b,,2,,1/5,26,37,48,1V74[8:1]/5V38[8:1],,
{8},,,{16}1/5,,7b<4[8:1]/8b,,,,{24}7/3,2,1,8h[8:2],,,,,,{16}4,,6b/2b>5[8:1],,,,{24}2/6,7,8,1h[16:2],,,,,,{16}5-2[8:1]/1-6[8:1],,,,,,,,35,,1b>4[8:1]/7b,,,,{24}1/5,6,7,8h[8:2],,,,,,{16}4,,1b<6[8:1]/5b,,,,{24}1/5,4,3,2,,,,,,{24}1b,2,3,4,5,6,7,8,1,2,3,4,{8}5>1[16:5]/6h[8:2],,,7h[8:3],,,{12}2,2,4,
{12}3h,5,4h,7,1h,5,3h,7,5h,8,2h,4,{16}3h,4,3h,4,2h,5,2h,5,1h,6,1h,6,8h,7,8h,7,{24}1,2,3,4,5,6,7,8,1,2,3,4,
{8}5h[16:4]/7h[4:1],,,,3h[4:1]/4b,,,2h[4:1]/3h[4:1],,,82,,5h[4:1]/6h[4:1],,,
6h[4:1]/7h[4:1],,,71,,1h[4:1]/8h[4:1],,,2b>8[8:7]/7b<1[8:7],,,,,,,,,,,,,
3h[4:1]/4b,,,2/8h[8:3],,,7,,5h[4:1]/6h[4:1],,,
7/1h[8:3],,,2,,4h[4:1]/5h[4:1],,,3h[4:1]/6h[4:1],,,2qq5[8:6]/7pp4[8:6],,,,,,,,,,
{16}4b/2h[16:3],,,4,3,,5,,5/3h[16:3],,,5,4,,6,,5/7h[16:3],,,5,6,,4,,4/6h[16:3],,,4,5,,3,,4/2h[16:3],,,4,3,,25,,1/6h[16:3],,,5,6,,37,,8/2h[16:3],,,4,3,,62,,1/7h[16:3],,,5,6,,3,,8b/2b>5[16:2],,,1,2,,8,,7<4[16:2],,,8,7,,1,,2-5[16:2],,,1,2,,8,,7-4[16:2],,,8,7,,1,,3>8[16:2],,,4,3,,5,,6<1[16:2],,,5,6,,4,,3-8[16:2],,,4,3,,5,,5w1[16:2],,,,5b,,,,
{16}7/3,,2-4[8:1],1,,1,2,,7h[8:1],,1-3[8:1],8,,8,1,,6h[8:1],,8-2[8:1],7,,7,8,,{16}5,6,7,8,{16}2,3,4,5,{12}7h[12:2],5,5,6h[12:2],4,4,{16}2,4,3,5,4,6,5,7,8,6,1,7,2,8,3,1,2,4,3,5,4,6,,,{16}5h[8:1],,6-8[8:1],5,,5,6,,4h[8:1],,5-7[8:1],4,,4,5,,3h[8:1],,4-6[8:1],3,,3,4,,2h[8:1],,1,2,1,,{24}7,8,7h[12:2],8,,,{24}8,1,2,3h[8:1],,,1,2,3,{16}4h[8:1],,3,5,2,6,1,7,1h[8:1],,{24}8,7,6,5h[8:1],,,{24}7,6,5,4,3,2,1,8,7,6,5,4,3,2,1,{16}8b/7b,,7,5,6,5h[16:1],7,,1/8,,2,4,3,4h[16:1],2,,1/8,,
7,5,6,5h[16:1],8,,1/7,,2,4,3,4h[16:1],1,,2/8,,71,,86,,75,,{24}4,6,4,6,4,6,3q8[8:3]*<7[8:3],5,3,5,3,5,,,,,,,,,,,,,
{8}1>6[8:2],,7h[16:4],,,8h[16:4],,6,57,{16}4,5,2,1,3,8,2,1,4,7,2,1,5,6,3,8,5,6,3,4,3,4,
{8}2h[8:1]/5-8[12:1],,2h[8:1],,3h[8:1]/1v6[12:1],,3h[8:1],,{12}53,4,5,64,5,6,{16}8,7,8,7,1,6,2,5,3,3,4,2h[16:3],,,6,6,5,7h[16:3],,,1,1,5,5,3,7,2,6,1,5,8,4,{24}1,2,3,4,5,6,2,3,4,5,6,7,{12}8/3,2,1,2/5,4,3,1/6,7,8,4/7,5,6,{16}4,5,3,4,2,5,8,7,1,8,2,1,{24}2,3,4,5,6,7,
{16}8,,2b/6h[8:1],,,4b/8h[8:1],,,1h[8:1]/5b,,,5h[8:1]/7b,,,4b/2h[16:4],,,,4,3,,1/6h[16:3],,,5,6,5,6,3,4,3,4,2,3,4,5,{12}8h,8h,8h,{16}7,6,5,4,{12}1h,1h,1h,{16}6h[32:1],2,6h[32:1],3,6h[32:1],4,6h[32:1],5,{24}7,6,5,4,3,2,7,6,5,4,3,2,{16}7b,8,5,2,4,3,8b,1,6,3,5,4,6,3,7,2,{12}8b,8,8,6b,6,6,4b,4,4,2b,2,2,{16}4h[32:1],3h[32:1],4h[32:1],3h[32:1],5h[32:1],2h[32:1],5h[32:1],2h[32:1],6h[32:1],1h[32:1],6h[32:1],1h[32:1],7,8,7h[16:2],,4b,6,5,6,3b,5,4,5,2b,4,3,4,{32}1,2,3,4,5,6,7,8,{48}1,26,35,4,,,
{16},,2/6,,,,3/7,,2-5[8:1],1,,1,2,,6,,7-4[8:1],8,,8,7,,3,,3,4,2,4,3h[16:2],,{12}6,5,7,3,4,2,{16}7,5,6,4,5,3,4,2,1,3,8,2,7,1,6,8,7,5,6,4,5,3,4,2,5<8[8:1],,,,{32}1b,2,3h[16:3],,,,,,{32}1,8,7h[16:1],,2-5[8:1],3,4,,8b,,,,,,,,{32}8,7,6h[16:1],,2-8[8:1],3,4,,{16}7b,{32},,,,,,7,6,5h[16:1],,1,2,3,,{24}7h[12:3],,,5,4,3,2h[16:2],,{24},1,8,7,6h[8:1],,,8,7,6,{16}5h[8:1],,{24}7,6,5,4,3,2,1,8,7,{24}6h[16:2],,,2,3,4,5h[8:1],,,1,8,7,6,5,4,1,2,3,7,6,5,2,3,4,
{16}8,,2-5[8:1],1,,1,2,,6,,7-4[8:1],8,,8,7,,3,,2,1,,3,4,2,5,1,6,6,5,7,4,8h[16:3],,,5,74,36,5/2h[16:3],,,4,53,64,5/7h[16:3],,,5,5>2[16:2],,,1,8,7,6h[16:3],,,1,2,3,4,5,6,7h[16:2],,8p4[16:1],,{32}82,,,,,,,1<6[16:1],,,,,1/2,3,4,,,,,,3,,{32},,2,,,,1q5[16:1],,,,{32}17,,,,,,,8>3[16:1],,,,,87,6,5,,,,,,7,,,,6,,,,{24}4/5,3,2,1,8,7,3,2,1,8,7,6,2,1,8,7,6,5,2,1,8,7,6,5,{12}2,4,3,6,5,7,{16}1,2,3,4,5,6,7,8,{1}1bpp5[2:3]*>8[2:3],,5bs1[2:3]/8bV63[2:3],,{16},,3h[16:9],,,4,,,5,,,6h[16:7],,,7,,,,2h[16:9],,,4,,,5,,,7h[16:3],,,8,,{64}2b,1,,,,,,,{16}8/4,,,,{64}7b,8,,,,,,,{16}5/1,,,,{64}3,4,,,,,,,{16}25,,,,{64}6,5,,,,,,,{16}27,,27,36,{4}5s1[8:1]/4z8[8:1],,
{12}2b/7b,2b/7b,2b/7b,{16}1,8,5,6,
3,4,2,5,2,1,3,8,5,6,4,7,8,7,1,6,{12}2/5h[12:2],3,4h[12:4],5,6,7,{32}8,1,2,3,4,5,6,7,{24}8-6[8:1]/1,,,2,3,4,8-2[12:1],,,3,4,5,{16}8,,3,,8/1-3[8:1],,{24}7,6,5,1-7[12:1],,,6,5,4,{16}1,,6,,{24}1,5,1,5,1,5,{32}2,3,4,5,6,7,8,1,2,3,4,5,6,7,8,1,2,3,4,5,6,7,8,1,2,3,4,5,6,7,8,1,{12}42,4,4,6,6,6,8,8,8,2,2,2,
{24}4,3,4,{16}3,5,2,5,1,6,{24}8,7,8,7,8,7,{16}1,6,2,5,{32}3,4,5,6,7,8,1,2,{32}37,6,5,4,3,2,1,8,{48}72,3,4,5,6,7,8,1,{48}26,73,48,51,{8},,{32}7b/1b,2/6,35,4,,,,,{32}56,,,,37,,,,{32}2b/8b,7/3,64,5,,,,,{32}35,,,,61,,,,{32}7b/8b,16,25,43,,,,,{32}38,,,,12,,,,{32}2b/1b,83,74,56,,,,,{32}3/5,,,,1/7,,,,{48}8b<8[8:20]*>8[8:20],1b/7b,2b/6b,3b/5b,4b,
&inote_7=(178)
{1},,,
{48}1b,28,37,46,5pp1[4:5],,,,,,,,,,,,,,,,,,,,
{32}4h[32:8],,,,,,,,,,,,,,,3h[32:8],,,,,,,,,,,,,,,,2h[32:16],,,,,,,,,,,,,,,,{4}8h[4:3],3,4,5pp2[32:33],6h[32:33],,,,,{32},{4}4/5,8/1,2/7,{24}6h[16:6]/3,4,5,,,,{16},,7,8,{4}1,21,{24}3h[16:8]/4,5,6,7,8,,,,,,,,{8}5w1[8:1],,,,
{24}7h[8:3]/3b,,,,,,{8}8,8,{24}2h[8:3]/5h[16:2],,,,,,{8}1,8,{24}7h[8:3]/5h[16:2],,,,,,{8}8,1,{24}2h[8:3]/4h[16:2],,,,,,{8}1,8,
{32}7h[16:4]/3b,4,5h[16:3],,,,,,{8},3,{32}6/2h[8:2],5,4h[16:3],,,,,,{8},6,{32}7h[8:2]/1,2,3,4,,,,,{8}3,2,{32}1h[8:2]/8,7,6,5,,,,,{8}5,{24}15,26,37,
{8}4b>5[4:7]/8b,,6,7,,,7,8,,,1,2,,,2,3,4h[8:7],,8v3[8:1],8,,,1-6[8:1],1,3h[8:1],,4,5,
{16}56,4,3,2,5,6,7,8,{8}1>4[8:1],1,8,7,6<1[8:1],6,5,4,3<6[8:1],3,2,1,8>3[8:1],8,7,6,
5>2[8:1],5,6,7,8<5[8:1],8,1,2,3>8[8:1],3,4,5,6>3[8:1],6,7,8,
{16}2>5[8:1],1,2,,8,,7,,6<1[8:1],5,6,,4,,3,,3<6[8:1],2,3,,1,,8,,7>2[8:1],6,7,,5,,4
,,3>8[8:1],4,2,4,3,,7,,6>3[8:1],5,7,5,6,,2,,2<7[8:1],1,3,1,2,,6,,5<8[8:1],4,6,4,5,,1
,,
{16}2h[16:2]/1h[16:2],,,,{32}1b/2b,83,74,65,,,,,{24}2,3,4,{16}6h[16:2],,{24}3,4,5,{16}7h[16:2],,5,4,3,2,8<1[16:5]/1,7,6,5h[16:5],,,,,,,5,,25,6,7,8,5,4,3,2,4h[8:1],,1,,25,,3/6,,7/4v2[8:1],,4,,7,,7h[8:1],,8,1,2,3,46,7,8,1,2v5[8:1],,3,1,2,,7,,84,7,6,5,43,2,1,8,6v1[8:1],,7,5,6,,2,,28,3,4,5,8,7,6,5,4/3,,2>7[16:4],1,3,,2h[16:4],,,,,,81,2,3,4,56,,7,8,6,,51,,7v4[16:2]/3v8[16:2],,48,,7b/3b,,,,
{16}5/6,,4/5,,3/4<7[16:3],,2,,4/8,1,2,3,8,1,2,3,4,5,6,7,1/8,2,3,4,6/5-1[8:1],,4,,5/3,,,,28,,2,1,2,3,4,5,8-4[8:1],,4-6[16:2],,8,,2,,2-5[8:1],,5V38[16:3],,2,,6,,7bv2[8:1]*qq5[16:2],,,,,,,,3>8[16:3]/7,,4,,3/7,6,5,4,7,6,5,4,3/7,,1/8,,2,4,3,5,46,,46,37,2>5[8:1]/8<5[8:1],,,,,,,,1b/7b,,7b<4[8:1]/1b,,35,,{24}3/7,2,1,{16}8,,,,2b/8b,,4/6,,3b/7b,,2,,1/5,26,37,48,1V74[8:1]/5V38[8:1],,
{8},,,{16}1/5,,7b<4[8:1]/8b,,,,{24}7/3,2,1,8h[8:2],,,,,,{16}4,,6b/2b>5[8:1],,,,{24}2/6,7,8,1,,,,,,{16}5-2[8:1]/1-6[8:1],,,,,,,,35,,1b>4[8:1]/7b,,,,{24}1/5,6,7,8h[8:2],,,,,,{16}4,,1b<6[8:1]/5b,,,,{24}1/5,4,3,2,,,,,,{24}1b,2,3,4,5,6,7,8,1,2,3,4,{8}5>1[16:5]/6h[8:2],,,7h[8:3],,,{12}2,2,4,
{12}3h,5,4h,7,1h,5,3h,7,5h,8,2h,5,{16}3h,4,3h,4,2h,5,2h,5,1h,6,1h,6,8h,7,8h,7,{24}1,2,3,4,5,6,8,1,2,3,4,5,
{8}6/1,,,,3h[4:1]/4b,,,2h[4:1]/3h[4:1],,,81,,5h[4:1]/6h[4:1],,,
6h[4:1]/7h[4:1],,,78,,1h[4:1]/8h[4:1],,,2b>8[8:7]/7b<1[8:7],,,,,,,,,,,,,
2h[4:1]/4b,,,1/7h[8:3],,,6,,4h[4:1]/6h[4:1],,,
8/2h[8:3],,,3,,4h[4:1]/5h[4:1],,,3h[4:1]/6h[4:1],,,2qq5[8:6]/7pp4[8:6],,,,,,,,,,
{16}4b/3h[16:3],,,4,3,,5,,5/6h[16:3],,,5,6,,3,,4/2h[16:3],,,5,3,,6,,5/7h[16:3],,,4,6,,3,,4/2h[16:3],,,4,3,,25,,1/6h[16:3],,,5,6,,37,,8/2h[16:3],,,4,3,,62,,1/7h[16:3],,,5,6,,3,,8b/2b>5[16:2],,,1,2,,8,,7<4[16:2],,,8,7,,1,,2-5[16:2],,,1,2,,8,,7-4[16:2],,,8,7,,1,,3>8[16:2],,,4,3,,5,,6<1[16:2],,,5,6,,4,,3-8[16:2],,,4,3,,5,,5w1[16:2],,,,5b,,,,
{16}7/3,,2-4[8:1],1,,1,2,,7h[8:1],,1-3[8:1],8,,8,1,,6h[8:1],,8-2[8:1],7,,7,8,,{16}7,6,5,4,{16}1,2,3,4,{12}7h[12:2],5,4,6h[12:2],3,3,{16}2,4,3,5,4,6,5,7,8,6,1,7,2,8,3,1,2,4,3,5,4,6,5,,{16}5h[8:1],,6-8[8:1],5,,5,6,,4h[8:1],,5-7[8:1],4,,4,5,,3h[8:1],,4-6[8:1],3,,3,4,,2h[8:1],,1,2,1,,{24}7,8,7h[12:2],8,,,{24}8,1,2,3h[8:1],,,1,2,3,{16}4h[8:1],,3,5,2,6,1,7,1h[8:1],,{24}8,7,6,5h[8:1],,,{24}7,6,5,4,3,2,1,8,7,6,5,4,3,2,1,{16}8b/7b,,7,5,6,5h[16:1],7,,1/8,,2,4,3,4h[16:1],2,,1/8,,
7,5,6,5h[16:1],8,,1/7,,2,4,3,4h[16:1],1,,2/8,,71,,86,,75,,{24}4,6,4,6,4,6,3q8[8:3]*<7[8:3],5,3,5,3,5,,,,,,,,,,,,,
{8}1>6[8:3],,17,,7,8h[16:4],,6,57,{16}4,5,2,1,2,1,3,8,3,8,4,7,4,7,5,6,5,6,3,4,3,4,
{8}2h[8:1]/5-8[12:1],,2h[8:1],,3h[8:1]/1-6[12:1],,3h[8:1],,{12}3,4,5,4,5,6,{16}72,3,4,5,8,7,6,5,3,3,4,2h[16:3],,,6,6,5,7h[16:3],,,2,2,6,6,4,8,3,7,2,6,1,5,{24}1,2,3,4,5,6,2,3,4,5,6,7,{12}8/3,2,1,2/5,4,3,1/6,7,8,4/7,5,6,{16}4,5,3,4,2,5,1,6,8,7,2,1,{24}3,8,3,8,3,8,
{16}3,,2b/6h[8:1],,,4b/8h[8:1],,,1h[8:1]/5b,,,4h[8:1]/7b,,,5b/2h[16:4],,,,4,3,,1/6h[16:3],,,5,6,5,6,3,4,3,4,2,3,4,5,{12}8h,8h,8h,{16}7,6,5,4,{12}1h,1h,1h,{16}6h[16:1],2,6h[16:1],3,6h[16:1],4,6h[16:1],5,{24}7,6,5,4,3,2,7,6,5,4,3,2,{16}7b,8,5,2,4,3,8b,1,6,3,5,4,6,3,7,2,{12}16,7,8,47,5,6,25,3,4,38,1,2,{16}2,3,4,5,2,3,4,5,1,2,3,4,1,8,7,6,4b,6,5,6,3b,5,4,5,2b,4,3,4,{32}1,2,3,4,5,6,7,8,{48}17,26,35,4,,,
{16},,2/6,,,,3/7,,2-5[8:1],1,,1,2,,6,,7-4[8:1],8,,8,7,,2h[16:2],,8,1,7,5,6,4,{12}5h[6:1],3,2,6h[6:1],4,3,{16}7,5,6,4,5,3,4,2,1,3,8,2,7,1,6,8,7,5,6,4,5,3,4,2,5<8[8:1],,,,{32}1b,2,3h[16:3],,,,,,{32}1,8,7h[16:1],,2-5[8:1],3,4h[16:1],,8b,,,,2b,,,,{32}8,7,6h[16:1],,2-5[8:1],3,4h[16:1],,{16}7b,{32},,2b,,,,8,7,6h[16:1],,1,2,3h[16:1],,{24}6,,57,,3,,4/2h[16:2],,{24},1,8,7,6h[8:1],,,8,7,6,{16}5h[8:1],,{24}7,6,5,4,3,2,1,8,7,{24}6h[16:2],,,2,3,4,5h[8:1],,,1,2,3,4,5,6,1,2,3,7,6,5,2,3,4,
{16},,2-5[8:1],1,,1,2,,6,,7-4[8:1],8,,8,7,,3,,1,8,,3,4,2,5,1,6,6,5,7,4,8h[16:3],,,5,74,36,2/5h[16:3],,,2,63,47,5/8h[16:3],,,1,1h[16:3],,,8,7,6,5h[16:3],,,1,2,3,4,6,5,7h[16:2],,8p4[16:1],,{32}8,1,2,,,,,1<6[16:1],,,,,1,2,3,,,,,,2,,{32},,2,3,4,,1q5[16:1],,,,{32}1,8,7,,,,,8>3[16:1],,,,,8,7,6,,,,,,7,,,,6,,,,{24}4/5,3,2,1,8,7,3,2,1,8,7,6,5/3,2,1,8,7,6,5/2,1,8,7,6,5,{12}2h[12:1],1h[12:1],8h[12:1],7h[12:1],6h[12:1],5h[12:1],{16}1,2,3,4,5,6,7,8,{1}1bpp5[2:3]*>8[2:3],,8bpp6[2:3]/5bV37[2:3],,{16},,3h[16:9],,,4,,,5,,,6h[16:7],,,7,,,,2h[16:9],,,4,,,5,,,7h[16:3],,,8,,1b/2,,8/4,,,,7/8b,,5/1,,,,3b/4b,,25,,,,5b/6b,,3/7,,,,{4}5s1[8:1]/4z8[8:1],,
{12}2b/7b,2b/7b,2b/7b,{16}1,8,5,6,
3,4,2,5,2,1,3,8,5,6,4,7,8,7,1,6,{12}2/5,3/5,4/5,4/5,6/4,7/4,{32}8,1,2,3,4,5,6,7,{24}8-6[8:1]/1,,,2,3,4,8-2[12:1],,,3,4,5,{16}8,,3,,8/1-3[8:1],,{24}7,6,5,1-7[12:1],,,6,5,4,{16}1,,6,,{24}1,5,1,5,1,5,1,5,,26,37,48,{32}1h[12:6]/5,6,7,8,2,,3,4,5,6,7,8,2,,3,4,5,6,7,8,1,2,3,4,{12}7/5,6,6,1/6,8,7,83,2,1,2/5,4,3,
{24}6,5,6,{16}5,7,4,7,3,8,{24}2,1,2,1,2,1,{16}3,8,2,7,{32}2,3,4,5,6,7,8,1,27,6,5,4,3,2,1,8,{48}72,3,4,5,6,7,8,1,26,37,48,51,{4},{32}7b/1b,2/6,35,4,,,,,{32}56,,,,37,,,,{32}2b/8b,7/3,64,5,,,,,{32}46,,,,78,,,,{32}7b/8b,16,25,43,,,,,{32}38,,,,12,,,,{32}2b/1b,83,74,56,,,,,{32}3/6,,,,2/7,,,,{48}8b<8[8:20]*>8[8:20],1b/7b,2b/6b,3b/5b,4b,
