&title=HG魔改造ポリビニル少年
&artist=IOSYS TRAX(D.watt with さきぴょ)
&first=0
&des=SHGINIEST
&lv_5=14
&inote_5=(140){4},{1},,,,{4},,,{8}8,
5h[8:1],1,4h[8:1],5v4[8:1],6/3,,,1,
4h[8:1],8,5h[8:1],4v5[8:1],3/6,,,8/1,
3h[8:1]/6h[8:1],,7/2,4v5[8:1]/5v4[8:1],6/3,{24},,,,,,6/3,
7,8,1,2,3,{4}5/4-1[8:1]*-7[8:1],{2}4w8[8:1],
{8}2-4[8:1],7,6,{16}5,5pp1[16:5],,3,,2h[16:3],,,,,{8}4-2[8:1],
8,7,{16}6,6pp1[16:5],,3,,4h[16:3],,,,,{8}2-5[8:1],
8,7,{16}6,6q8[16:5],,4,,3h[16:3],,,,,{8}4-1[8:1],
1,8,{16}7,7-3[8:1],,4,,7,,,{8}2,
4<7[8:1],4,3,{16}2,2<4[4:1],,3,,4,,,{8}2,
3<6[8:1],3,2,{16}1,1<3[4:1],,2,,3,,,{8}1,
2<7[8:1],2,3,{16}4,4>1[16:3],,5,,6,,,7,6,
{8}5,1/4,{16}2,4,,5,{8}7-3[8:1],1-5[8:1],7,1,
7,6,{16}5/4,3,{8}2-5[8:1],6-1[8:1],2,{4}6,
{8}2,3,{16}5/4,6,{8}7-4[8:1],2-5[8:1],7,{4}2,
{8}7,6,{16}5/4,3,{8}2-5[8:1],7-2[8:1],2,{4}7,
{8}2,3,{16}5/4,6,{8}7,8,1,{24}2,3,2,3,2,3,
{8}2,4,8/1,{16}3/4,2/6,,,{8}7,8/1,{16}5/6,7/3,
,,{8}8,1/8,6/3,{16}7p1[16:3]/2q8[16:3],6/3,{8}4/5,{4}7/2,
{8}7-5[8:1],7,2-4[8:1],2,7-5[8:1],8,2-4[8:1],1,
7-5[8:1],{16}8,8,{8}2-4[8:1],{16}1,1,{8}7-3[8:1]*-5[8:1],{16}8,8,{4}7,
{24}1,2,3,4,,,4/7,3/6,2/5,1/4,{48},,,,{16}2-6[8:1],1,2,1,{4}2,
{8}8/1,{16}7,5,6,4,5,5,{24}2,1,8,7,6,5,{16}4,4,{8}6/3,
{24}8,7,6,5,,,5/2,6/3,7/4,8/5,{48},,,,{16}7<4[8:1],8,7,8,{4}7,
{24}2,1,8,7,{48},{16}5,4,6,3,7,2,4,1,7,5,8,4,5,
{24}2,3,4,5/8,,,7,6,5,4/1,{48},,,,{16}2,4,3,7,5,6,1,8,
{24}1,2,3,4/5,6,7,{16}8,8,{8}3/6,{16}5,3,4,2,7,1,{8}8,
{16}6/2,3,4,5,{8}6h[16:1]/7h[16:1],1h[16:1]/3h[16:1],{16}7,6,5,4,{8}2h[16:1]/3h[16:1],8h[16:1]/6h[16:1],
{16}1/5h[8:1],2,3,4,5/1h[8:1],6,7,8,1/5h[8:1],2,3,4,5/1h[8:1],6,7,8,
{4}1h[8:1]/5h[8:1],{16}2,2,2,2,,8/3,,,{8}6v1[8:1]*v3[8:1],4/5,
{4}6,{16}5,5,5,5,,1/6,,,{8}3v6[8:1]*v8[8:1],5/4,
{4}3,{16}4,4,4,4,,2/6,,,{8}7/8,3/1,
{16}4h[8:1]/2h[8:1],,,3h[8:1]/8h[8:1],,,{8}5h[8:1]/6h[8:1],{16},3/4,,2/7,{8}7-4[8:1]/2-5[8:1],8/1,
{4}2/7,{16}3,3,3,3,,5/2,,,{8}4v7[8:1]/1v4[8:1],3/2,
{4}4/1,{16}6,6,6,6,,4/7,,,{8}8v5[8:1]/5v2[8:1],6/7,
{4}8/5,{16}1,1,1,1,,3/6,,,{8}1/8qq8[4:1],2,
{16}3,,,3,4,5h[16:3],,2,,8,3,4,6,5,{8}2,
{16}3<6[8:1],4,3,4,{4}3h[16:3],{16}7>2[8:1],6,7,6,{4}7h[16:3],
{16}2pp1[4:1],1,2,8,{4}2,{16}7qq8[4:1],8,7,1,{4}7,
{16}2,1,3,7,8,6,2,4,3,7,5,6,3V52[4:1],5,3,5,
{8}3,{16},,,,1<6[8:1],6,{8}6,{16}1>4[8:1],4,{8}4,1,
5,{16}3,4,{8}2,{16}6,5,{8}7,{16}2,4,{8}3,{16}7,5,
{8}6,{16}2,2,{8}8,{16}7,7,{24}1b,2,3,6b,7,8,3b,2,1,8b,7,6,
{16}4/5,3,2,1,8/6h[8:1],1,2,3,4/5,6,7,8,1/3h[8:1],8,7,6,
{32}1b/5,2,3,4,5,6,7,8,1,2,3,4,8b,7,6,5,4,3,2,1,8,7,6,5,1b/4,2,3,4,8b/5,7,6,5,
{1}1b/4bpp1[2:1]*pp8[2:1],
{8}7,5h[8:1],2,4v1[8:1],7v4[8:1],4,{4}7,
{8}3,8h[8:1],6,4v7[8:1],1v4[8:1],4,{4}1,
{8}8,5h[8:1],6,4v1[8:1],7v4[8:1],4,{4}7,
{8}1/8,4h[8:1],2,{16}5h[8:1],1,,1,6h[8:1],1,,,{8}7h[8:1],
2,8h[8:1],3,{16}1h[8:1],4,,4,2h[8:1],4,,,{8}3h[8:1],
4-7[8:1],2,8-5[8:1],2,4-7[8:1],2,8,2,
5/4q5[4:1],{16}6/3,5/4,{4}5/4,{16}7,8,1,2,{8}6b/3b,3/6,
{24}8,7,6,5/4,,,5/1,6/2,7/3,8/4,{48},,,,{16}7<4[8:1],8,6,1,{4}7,
{16}2,4,3,3,7,5,6,6,{24}4,3,2,1/8,7,6,{16}5,5,{8}2/7,
{24}1,2,3,5/4,,,8/4,7/3,6/2,1/5,{48},,,,{16}2-6[8:1],1,3,8,{4}2,
{24}8,7/1,2/6,3/5,{48},{16}4,3,6,3,7,3,8,2,2,7,1,6,6,
{24}2/5,3/6,4/7,8/5,,,7/4,3/6,2/5,1/4,{48},,,,{16}3,4,2,2,6,5,7,7,
{24}1b/8b,2,3,5/4,6,7,{16}8b/1b,1/8,{8}6/3,{16}2,4,1,7,5,8,{8}1,
{16}2,2,2,2,{32}2,3/1,4/8,5/7,{8}6,{16}7,7,7,7,{32}7,8/6,1/5,2/4,{8}3,
{16}5,7,5,8,5,1,5,2,5,3,5,4,{8}5v8[8:1]*v2[8:1],8v5[8:1]/2v5[8:1],,,,,,,,,,,,,,,,,
E
