&title=雪降り、メリクリ
&artist=A-39 & 沙包P
&first=-0.68
&des=
&des_5=圣诞老鸭
&lv_5=13+
&inote_5=(180){4},,,,{1}6/1-7qq4[4:7],,{2}7h[2:1],
5h[2:1],
{1}4qq7[4:3],
1s5[2:3],
,{2}6h[4:1],
5h[4:1],
4h[4:1],3h[4:1]/5h[4:1],
{4}2,4/6h[2:1],{8},5,{4}5,
7,5/3h[2:1],{8},4,{4}4,
2,1/7h[2:1],{8},8,{4}8,
6,8/2h[2:1],{8},1,{4}1,
3,4/6h[8:3],{8},5,{4}5/6,
7,5/3h[8:3],{8},4,{4}4/3,
2,1/7h[8:3],{8},8,{4}8/7s3[2:1],
,,,{16}1,2,3,4,
{8}5b/6b,7,2/8,3,4,8,7/1,5,
3,7,1/2z6[4:1],2,{2}6z2[4:1],
{8}5,5,1/6,2,8,3,4/7,8,
5,6,7/1,2,{16}E8,B7,B6,E6,E2,B2,B3,E4,
{8}8,8,7/1,2,4,3,7/4,1,
2,2,5/3,6,5,7,8/4,8,
1,1,2/4,3,8,8,5/7,6,
{2}1V72-5[8:5],{4}6-1[8:1],6b,
{16}8,5,8,5,{8}8,{16}4,6,4,6,{8}4,{16}5,2,{8}5,
{16}3,4,3,4,2,5,{8}2,{24}D6,D7,D8,D1,D2,D3,D4/A6,A7,A8,A1,A2,A3,
{16}6x,4x,6x,4x,{8}6x,{16}2,1,2,1,{8}2,{16}8,3,{8}8,
{16}5,6,5,6,4,5,{8}4,{24}D4,D3,D2,D1,D8,D7,D6/A3,A2,A1,A8,A7,A6,
{16}3x,5x,3x,5x,{8}3x,{16}8,4,8,4,{8}8,{16}5,6,{8}5,
{16}7,1,7,1,{8}7,{16}2,4,{8}3xh[16:1],5xh[16:1]/4xh[16:1],6x/5x,7,
{16}2,8,2,8,{8}2,{16}4,3,4,3,{8}4,{16}8,7,8,7,
{4}E2,B7/E7,B3/B4/E4,5w1b[8:1],
{32}5b/E6/E5,B5f,{16},,,,,,,{8}8/2,3,4,5,
6/4,5,6,7h[8:3],{16}E6,E7,E8,E1,E2,E3,E4,E5,
{2}8x-4[8:1]*-3[8:1],{8}5/2,1,8,7,
6/2,1,8,7h[8:3],{16}E1,E8,E7,E6,E5,E4,E3,E2,
{2}8x-4[8:1],{8}2/5,2,1,1,
7/4,7,6,6,{32}E3,B3,{16},{32}B5,E5,{16},{32}B7,E7,{16},,,{2}1xp4[8:1]*-5[8:1],
{8}6/3,2,1,8,
3/7,6/2,{4}5/1-5[8:1],1/8-4[8:1],8/1<6[8:1]*>4[8:1],
{2}1b,{8}3/5,2,7,4,
5/6,8,1V74V26[8:3],3,{2},{8}5x,
4,{4}8h[8:1],{8}4/2,3,7,5,
1/6,4,3>6<3[8:3],7,{2},{8}6x,
5,2h[8:1],,3/7,4,5,1,
4/2,3,6,8,{32}E7,B6,{16},{32}B4,E5,{16},{32}B2,E3,{16},,,{8}1x/8x,
2,{4}6h[8:1],{8}7/4,3,5<4[1:1],1,
{4}6xh[8:1],4xh[8:1],2xh[8:1],8xh[8:1],
{1}7bx<4-1[4:11]*>2-5[4:11],
,,,{8}3/4,
3,5/3,3,6/4,6,6/8,6,
5/2,2,1/2,2,7/4,7/4,{4}1b/2b,
{8}6/5,8,3/4,1,{16}7,8,7,8,7-3b[8:1],8,7,8,
{4}7b<1[2:1],{2},{4}8w4b[8:1],
{32}8b/B8,C,{16}B4,{8},{16}2,4,{8}2,{16}5,3,{8}5,{16}2,4,{8}2h[8:1],
{16}5,4,5,4,6,5,{8}7,1,3/4,{4}5/7h[4:1],
{16}8,7,{8}8,{16}6,4,{8}6,{16}1,8,{8}1,{16}5,4,{8}6h[8:1],
{16}8,7,8,7,1,6,1,6,{4}2b-6b[8:1],8bw4b[8:1],
{32}8b/B8,C,{16}B4,{8},{16}7,5,{8}6,{16}3,4,{8}3,{16}6,5,{8}7h[8:1],
{16}2,1,2,1,3,5,{8}4,7,1/2,{4}5/3h[4:1],
{16}7,5,{8}6,{16}2,1,{8}2h[8:1],{16}4,3,5,2,6pp4>5b[2:1],1,7,8,
{2},{4}B2/B3/D3,4-8b[8:1],
{32}4b/5b/B4,C,{16}B8,{8},{16}7,1,{8}6,{16}2,4,2,5,3,5,{8}1,
{16}7,8,7,8,6,4,{8}5,2,7/5,{4}1h[4:1]/2-6[8:1]b,
{32}2b/B2,C,{16}B6,{8},{16}7,5,7,5,8,4,{8}6h[8:1],{16}1,4,1,4,
2,5,{8}4h[8:1],{16}7,5,7,5,{8}8bx,2,{4}3/4-8[8:1]b,
{32}4b/5/B4,C,{16}B8,{8},{16}7,1,7,1,6x,5,6,2x,4,3,{8}8x,
7/1,{16}7x,5,6x,4,{8}5x,{16}2b,1,3,7b,5,6,3b>4[4:5],4,
{1},
,1>8[4:13],
E7/B6,
E5/B4,
B2/E3,
1/8<1[4:13],
E3/B3,
B5/E5
,
B7/E7,
{8}6hx[4:3]/5h,{4},{8}8h,{4},2h,
{8}3hx[4:3]/4h,{4},{8}1h,{4},7h,
5x/6h,3x/2h,{8},8x/7h,{4},{2}2xh/1-5[16:3],
{4}3h[4:1],{8}5,6,
5/7,7,6/4,4,5/3,5,4/2,2,
3/1,1,8/2,2,1/7,7,6/8,8,
1/5,1/5,2/6,2/6,7/3,3/7,4/8p4[1:1],8/4p8[8:7],
{2},,,{8}2,
4,5,7,
{16}1b/2b-6[8:1],{8},{16}5,{8}2,4h[8:1],{16}7>2[8:1],{8},{16}5,{8}7,6h[8:1],
{16}3v8[8:1],{8},{16}1,{8}3,7h[8:1],{16}1-5[8:1],{8},{16}6,{8}1,7,
{16}3/7q3[8:1],{8},{16}4,{8}7,5h[8:1],{16}1-6[8:1],{8},{16}3,{8}1,2h[8:1],
{16}4<7[8:1],{8},{16}1,{8}4,2,{4}1/3h[4:1],{8}4x,5x/4,
{16}5/6x<1[8:1],{8},{16}4,{8}6,3h[8:1],{16}8-4[8:1],{8},{16}2,{8}8,1h[8:1],
{16}3<6[8:1],{8},{16}8,{8}3,1h[8:1],{16}7-3[8:1],{8},{16}3,{8}7,2,
{16}4/1-5[8:1],{8},{16}7,{8}1,6,{16}4/8-4[8:1],{8},{16}2,{8}8,3,
5/2,2,5/6,6,{16}3,1,{8}3h[8:1],{16}6,5,6,5,
{8}7b-3[8:1],{16}3,3,{8}7,2,5-8b[8:1],{16}1,1,{8}5,3,
1<6[8:1],{16}4,4,{8}1,2h[8:1],{24}D4,D3,D2,D1,D8,D7,D6/A3,A2,A1,A8,A7,A6,
{8}A5/8-3[8:1],{16}3,3,{8}8,2,4<7b[8:1],{16}1,1,{8}4,2,
8-4[8:1],{16}3,3,{8}8,2,{24}5/D3,D4,D5,D6,D7,D8,D1/A3,A4,A5,A6,A7,A8,
{8}A1/2-6[8:1],{16}7,7,{8}2,8,5>2b[8:1],{16}1,1,{8}5,7,
1-6[8:1],{16}6,6,{8}1,5,7>2b[8:1],{16}4,4,{8}7,5,
4/6,6/4,5/7,8,1/2,3,4/6,7,
8/1h[8:1],3h[8:1],4h[8:1],6h[8:1],2h[8:1],4h[8:1],{4}6h[8:1],
{1}1bw5[4:5],
,{4}3/5h[2:1],
3,{2}3,
{4}6/4h[2:1],6,{2}6,
{4}5/2h[4:1],4h[4:1],{8}3h[4:1],5x,{4}6h[4:1],
{1}7h[2:1],
{4}6/1h[2:1],6,6,{8}7,3,
{4}4h[2:1],2,2,{8}2,1,
{4}3h[4:1],1h[4:1],8h[4:1],6h[4:1],
{1}5-1[4.6667##0.1667],
{8}B8,B2,B5,Ch[8:17]/5?-1b[2.8333##0.1667],{1},,{32},B5,
{16}B1,
E
