&title=腐れ外道とチョコレゐト[SD]
&artist=ピノキオP
&first=0
&des=Etherita
&lv_6=13.7
&des_6=Etherita
&inote_6=
(260){4},,,,,,,,,,,,,,,,,,,,{1}1-5[2:1],
4/7h[4:3],
5/3h[4:3],
8/2h[4:3],
{4}8/3h[2:1],8,{8}8,7,6,5,
{4}4-8[4:1],3,2,1,
6-2[4:1],5,4,3,
2>5[4:1],1,8,7,
{8}6b/4b,,,5b/2b,,,{4}1b/8b,
5/3,1,{8}1>4[4:1],8,{4}1,
7,5,{8}3,6,{4}4,
3/7,8,{8}1<6[4:1],2,{4}1,
3,4,{8}5,4,5,4,
{4}6/2,3,{8}2>5[4:1],4,{4}2,
7,6,{8}4,6,3,7,
{1}1-5[8:5],
1-5[8:3],
{4}4/6h[4:1],5,5/3h[4:1],4,
2/1,1/8,{2}8h[8:1]/7h[8:1],
{4}1/2h[4:1],8,8/7h[4:1],1,
3/4,5/4,{8}6-3[4:1],6,,,{4}2>4[4:1],
2,5,6,
7<5[4:1],7,{8}3,3,5,5,
{4}4h[4:1],{8}5,5,{4}6h[4:1],{8}5,5,
{4}4b,2b/7b,5b/4b,5<8[2:1],
4,3,2,1>4[2:1],
8,7,6,5,
{8}6,4,7,3,5,2,7,3,
{4}8>3[4:1],3<6[4:1],{2}6<8[4:1],
{8}1,1,8,2,7,3,{4}6h[4:1],
4h[4:1],{8}5,3,6,2,7,3,
{4}5-1[1:1],5h[2:1],,,{1}8b,
{4}6h[4:1],{8}5,5,{4}4,{8}1,1,
7,7,4,4,5,5,4,6,
{4}6h[4:1],{8}5,4,{4}3h[4:1],{8}4,5,
{4}8b/6b,4b/5b,{2}6b/8b,
{4}2h[4:1],{8}1,1,{4}2,{8}5,5,
3,3,7,7,1,8,3,6,
{4}4b,4b,{8}8b,4b,,4b,
,4b,,8b,{4}4b,7/2,
5-8[4:3],2,1,8-3[2:1],
4,5,6,{8}7,7,
{4}3h[4:1],1,6h[4:1],4,
2h[4:1],3b,6h[4:1],7b,
{8}3,3,7,7,2,6,3,7,
4,8,5,1,{2}6h[4:5],
{1}2h[4:3],
{16}1b/4b,8,7,6,5b/1b,4,3,2,{2}1b/5b,
{4}7<4[16:3],8,2>5[16:3],1,
7<4[16:3],8,2,{8}5,4,
6,6,5,7,3,3,4,2,
{4}7-4[16:3],2-6[16:3],{2}8-5[16:3],
{4}2-5[16:3],1,7-4[16:3],8,
2-5[16:3],1,{8}6,7,4,3,
8,7,6,5,8,1,2,3,
{4}5b/4b,7b/2b,{2}5b/4b,
{4}7-2[16:3],{8}3,3,{4}1-6[16:3],{8}2,2,
5<8[16:3],5,3,3,,8,{4}8,
7-4[16:3],1-5[16:3],8-4[16:3],2-5[16:3],
7-3[4:1],3>1[16:3],,3h[4:1],
{8}1,1,4,4,{4}1b,{8}6,6,
4,7,2,5,1b,6,3,8h[8:9],
,,,,,,,,{1}5b,
8-5[1:1]/1-4[1:1],
{8},,,,,,3,7,
{1}2-7[8:5]/6-3[8:5],
{4}5h[4:1],{8}4h[8:1],5h[8:1],{4}3h[4:1],{8}4h[8:1],3h[8:1],
{1}5-1[8:5],
{4}2/8,,,5/4,
{8}6/8,6/8,,1/3,{4}3/1,5h[4:1],
{2}4h[2:1],5b,
{4}2h[4:1],{8}5,3,{4}7h[4:1],{8}4,6,
{4}1h[8:1],1h[8:1],{2}1h[2:1],
{4}6h[4:1],{8}5,7,{4}3h[4:1],{8}4,2h[8:5],
{4}5b,5b,{2}5b,
{8}8-4[16:27],1,8,1,7,2,7,2,
5,4,6,3,7,2,{4}8b,
7b/2,7b/2,{8}3b/6,2b/7,,5b/4,
,5b/4,,1b/8,{4}4b/5,7<4[4:3],
4,3,2,1>4[4:3],
5,6,7,8,
6>3[4:1],3>1[4:1],1<6[4:1],6>4[4:1],
4-8[8:3],8b,1b,2b,
{8}8h[4:3],,,3,,,{4}3b,
{8}1h[4:3],,,7,,,{4}7b,
{1}8h[4:3]/1h[4:3],
{24}1b,2,{12}3,{24},,7b,6,{6}5,{24}2b,3,{12}4,,,,,{4}7<4[16:3],
{8}8,8,{4}2>5[16:3],{8}1,1,
{4}7<4[16:3],{8}8,8,2,2,6,5,
7,7,5,5,4,4,2,2,
{4}1-4[16:3],8-4[16:3],{2}7-4[16:3],
{4}1-4[4:1],{8}7,6,{4}5-8[4:1],{8}1,2,
{4}3-6[16:3],7-2[16:3],2>5[4:1],5<8[2:1],
1,8<5[4:3],1,2,
2,3,2>4[16:3],2b,
5<7[16:3],{8}3,2,{4}1-6[16:3],{8}2,3,
{4}7-2[4:1],2-6[4:1],{8},,,,1-3[8:1],
5-7[8:1],,,4-8[8:1],8-4[8:1],,,{4}6>3[4:1],
3-7[4:1],,1,
6h[2:1],{8}1,2,{4}3b,4,
4h[2:1],{8}8,7,{4}6b,5/4,
{1}7h[4:3]/2h[4:3],
{2}7b/2b,8,
{8}1/8h[1:1],,,6,,,{4}5,
{1}4h[1:1],
{4}2-7[4:3],,,6-3[8:5],
{1}6,
{8}4/3h[1:1],,,2,,,{4}2,
{1}1h[2:1],
1-6[4:3]/5-2[4:3],
{4},8b,7b,6b,
{8}8h[8:3],,,7h[8:3],,,{4}6h[4:1],
{2}5-1[2:1],8,
{8}1h[8:3],,,2h[8:3],,,{4}3h[4:1],
{1}4-8[2:1],
{2}6/2,7-2[2:1]/3<6[2:1],
,5/1,
{1}5-8[8:3]/1>4[8:3],
8-4[4:19]/1-5[4:11],
,,,7-4[8:1],
E
