&title=レイセン・オカルティア [東方深秘録 ReArrange]
&artist=COLL&CREATE
&first=-0.942
&des=m桑
&lv_5=14
&des_5=m桑
&inote_5=
(100){4},{8},,,,,,2/7-5[16:1],
3,7/4,{16}4,4,6,6,3,3,6h[8:1],,,3/5h[8:1],
,3,4,5,6,4,3,6,5,{32}4,5,{16}4-1[16:1],5,{8}5h[8:1],4,
6,3,3,{16}2,1,8,7,6,5,5h[16:1],,,4,
,3,4,6,{32}4/5h[32:3],,,4h[32:3],,,{16}5h[8:1],{8}2,6/2-6[16:1],1/7,2/8-4[16:1],
7h[16:1]/1-5[16:1],8/2h[16:1],1/7h[16:1],{16}4,3,{32}1,7,{16}1,2,3,5/4,,,4/5,
,3,2,6,5,3,4,6,4,3,5/2,6,{8}7/2,B6/B7/B5/B4/B3/B2,
1/8,8/7,1/2,{16}2,3,7,6,3,4,4h[16:1],,,5h[8:1],
,4,3,7,{8}6,{16}3,1,,8/1,7/2,4/5,{8}8b/1b,B6/E6/B5/E5/B4/E4/B3,
{16}1,2,3,4,5,6,8,8,1,1,7,7,1,2,3,4,
5,6,2/8,2,2/7,2,2/6,2,5,6,7,8,1,2,7,7,
1,1,8,8,1,2,3,4,5,6,7/1,8,1/3,2,1/7,8,
2,3,4,5,6,7,8,8-6[16:1],1,1,8,8,1,2,3,4,
5,6,7,7/1,7,2/7,7,7/3,4,5,6,7,8,1,7,7-5[16:1],
2,2,7,7,2,3,4,5,6,7,8,2h[16:3],,,{8}7h[16:5],
{32}2,3,4,5,6,8,{16}1,6,5,4,3,2,1,1,1-3[16:1],7,7,1,1,
6,5,4,3,2,1,8,8-6[16:1],1,1,8,8,4,3,2,1,
8,7,1/6,1,2/5,2,3/4,3,5,4,3,2,1,8,8/7,7,
7/1,7,7/2,7,1,8,7,6,5,4,3,3,2,2,1,1,
8,7,6,5,4,3,1,1-3[16:1],8,8,1,1,7,6,5,4,
3,2,2,2-4[16:1],8,8,2,2,7,6,5,4,3,2,1,8h[4:1],
,,{8}1h[16:1],1/8-4[16:1],1/8,8b/1h[16:1]/Cf,1h[16:1],2,{16}5/3,6,
3/7-5[16:1],2,1/7,2,7/3h[16:1],,,2h[8:1],,,3/6,4,6/5,7,5/8,5/8h[16:5],
,6,4,2,{8}1,Cf,7/5,6/4,3/5h[16:1],{16}5,3,
5,1,5,8,5h[16:1]/8h[16:1],,,6h[8:1],,,{8}8h[16:1],{32}7,,,6/8,,,{16}5/1,
{64}1/6,2,3,4,5,6,7,8,1,2,3,4,5,6,7,8,{8}1/5,2-5[16:1],2/7-4[16:1],2/1h[16:1],7/8h[16:1],{16}3,2,
1/8,7,6,3/5<8[16:1],3,,,5/3h[8:1],,,3,2,1/7,6,5/4,3,
5/2,6,2-4[16:1]/6-8[16:1],1/5,{8}5h[16:1]/1h[16:1],6b/2b,5/1,3/7,5/1,{16}1/5h[16:1],2,
2/6h[16:1],3,3/7h[16:1],4,8/5h[16:1],,,5,5,8,2,7,1,8-4b[16:1],2-5[16:1],7-4[16:1],
,8,2,7,{64}1b,B1/B5/Cf,,,,,,,,,,,,,,,{4}4/5h[4:3],2-4[32:3],
2,4h[4:3],7-5[32:3],7,
6h[4:3],2-5[32:3],2,4h[4:3],
5-8[32:3],5,7h[4:3],4>1[32:3],
4,2h[4:3],8-5[32:3],8,
5h[4:3],1-4[32:3],1,4h[8:5],
{16}5,,,5,,5,{8}5,{32}7,6,5,4,8,1,2,3,{16}4/5,6,7,8,
1,2,1/2,2,2/8,2,2/7,2,6/2,5,4,3,2,1,8/6,6,
6/1,6,6/2,6,6/3,2,1,8,7,6,3/4,3,3/5,3,3/6,3,
3/7,6,5,4,3,2,7/1,7,7/2,7,7/3,7,7/4,5,6,7,
8,1,1/8,1,1/7,1,1/6,1,1/5,4,3,2,1,8,8/1,8,
8/2,8,8/3,8,8/4,3,2,1,8,7,6/2,3,6/3,5,4/3,2,
4/1,5,6,7,8,1,{8}2,{16}4/3-1[16:1],5,{8}6-8[16:1],3/5,6/4,
3h[16:1],7/2-4[16:1],7-5[16:1],2p1[32:3],7,2,8h[16:1],{16}7-1[16:1],7,
{8}5-1[16:1],7-3[16:1],5,7,2h[16:1],{16}1-4[16:1],8,{8}7-4[16:1],1p8[32:3],
7,1,5h[16:1],{16}6-4[16:1],8,{8}1-3[16:1],6p7[32:3],{4}1,
{8}4h[16:1],{16}2-5[16:1],1,{8}8-5[16:1],2p1[32:3],8,2,6h[16:1],{16}5-7[16:1],4,
{8}3-1[16:1],5-8[16:1],3,5,3h[16:1],{16}1-5[16:1],8,{8}7-3[16:1],1p8[32:3],
7,1,7h[16:1],{16}6-8[16:1],5,{8}4-2[16:1],6-1[32:3],4,6,
4h[16:1],4/8-6[16:1],2/8-5[16:1],2/8-4[16:1],2/8,8/2,2h[16:1],5/1-3[16:1],
7/1-4[16:1],7/1-5[16:1],7/1,1/7,6h[16:1],6/1-4[16:1],8/1-6b[16:1],7/1-5[16:1],
1/3,1/7,7h[16:1],3/8-5b[16:1],1/8-3[16:1],2/8-4b[16:1],8/6,8/2,
1h[16:1],1/2-5[16:1],8/7-4[16:1],2/1-6b[16:1],8/7,2/1,2h[16:1],8/7-4[16:1],
1/2-5[16:1],7/8-3b[16:1],1/2,7/8,{16}4b/5b,6/3,7/2,5b/4b,6/3,7/2,5b/4b,6/3,
7/2,6/3,7/2,1/8,{32}1,8,1,8,1,8,{16}1,,,,,4/5,6/3,7/2-5b[16:1],1h[8:1]/8h[8:1],
,,{8}2/1,7/8-4b[16:1],7/2,{4}8/1/B8f/B5f/B4f/B1f/C,5,
4/5,4,{16}5/4,3,5/2,1,5/8,6,7/8,8/7h[4:1],
{32},,1,2,{8}3,{4}4/7,{32}5/4,,,,,,,4,,,,,,,,,{4}5/4,
5,{16}5/4,3,5/4,6,{32}5/3,,,6/4,,,{16}7/2,
{64}2/7h[8:1],3,4,5,6,8,1,2,,,,,,,,,{8}7/5,3,{64}5/1,2,{32}3,,,{8}6,{64}7/3,6,{32}5,{64},,,,,,,,,,,,1/5,
2,{32}3,{64},,,,1/5,8,{32}7,{64},,,,1/5,2,{32}3,,,,,{16}6h[8:1],,,5/3,2,1/5,6,{8}3h[16:1]/7h[16:1],
{16},6/5,4/7,3/8,{8}2h[8:1]/1h[8:1],B1/B2/B6/B5/Cf,8/7,1/2,{64}7/8,6,{32}5,{64},,,,1/2,3,{32}4,{16}8,
7,6,5,4,{4}8h[8:1]/4h[8:1],{64}8/4,7,{32}6,{64},,,,8/4,1,{32}2,{64},,,,8/4,7/3,{32}6/2,{64},,,,,,,,,,,,1,
2,3,4,5,6,7,8,1,2,3,4,5,6,7,8,1,2,3,4,5,6,7,8,{8}1,5/2,5/7,5/3,{16}4/5,6,
4/7,3,2/7,6,{8}5/1,1/5,{64}1/5,2,{32}3,{16}6,{64}1/5,8,{32}7,{16}4,{64}5/1,2/6,{32}3/7,,,{8}4h[16:1]/8h[16:1],
{16}7/3,2/6,1/5,8/4,{8}4h[8:1]/8h[8:1],E1/B1/B2/E3f,6h[16:1],3h[16:1]/5h[16:1],4h[16:1]/5h[16:1],{16}5/4,3,
5/2,6,7/2,1,{64}8/1,7/2,{32}6/3,{64},,,,,,,,,,2,3,{32}4h[8:1],{64},,,,7,6,5h[2:1],,,,,4,6,7,{4}8h[4:1],
{64},7,{32}6,{64}4,3,2,1,{8}8h[16:3],6,5,{64}5/3,6,{32}7,{64},,,,4/6,3,{32}2,{64},,,,6/2,7/3,{32}8/4,,,{16}5/1,4,
3/8,7,6/2,1,{64}7/2,3,{32}4,{16}8,1,1h[16:1],,1,{64}2,3,{32}4,{16}1,{64}8,7,{32}6,,,{16}5,5h[16:1],
{32},,4,6,{8}4,{64}4/5h[8:1],3,2,1,8,7,{32}6,{8}4,5/2,7/4,5/2,{16}8,7,
{64}1/6,2,{32}3,{64},,,,8/4,7,{32}6,{16}4,{64}5/3,6/2,7/1,8xh[64:5],,,,,,,,,{16}2,4/3,5,6/3,7,8/1,7/2,{8}3/6h[16:1],
{64}4/5,3,{32}2,{64},,,,3/5,6,{32}7,,,{8}8/1,3/6,{64}1/7,2,{32}3,{64},,,,2/8,7,{32}6,{64},,,,5/1,2/6,{32}3/7,,,{16}5/3,7/1,
,2bx/1b,6bx/5b,8b/7bx,{4}4b/3bx,
E
