&title=n/a
&artist=Blacklolita
&first=0
&des=坂酒屋
&lv_5=14
&inote_5=(170)
{1},
{2},E7/Chf[2:1]/B2/B3,
{1}6b-8-4-2[4:5],,
{1}3V15v2[4:5],
{2},Ch[2:1],
{4}1h[2:1],2,3h[2:1],4,
{4}5h[2:1],6,7h[2:1],8,
{8}1,1h[8:1],2,2h[8:1],3,3h[8:1],4,4h[8:1],
{8}5h[8:1],6h[8:1],7h[8:1],8h[8:1],{2}1b-5b[4:1],
{8}1^2^3^4^5^6^7^8^1-3-5-7[4:13],,4h[8:1],,,4,,,
{8}2h[8:1],,,2,,2,,,
{8},,4h[8:1],,,4,,,
{8}2h[8:1],,,2,,2-6b[8:1],,,
{8}7>2[8:1],7,6,5,4<7[8:1],4,3,2,
{8}1>4[8:1],1,8,7,6<1[8:1],6,5,4,
{8}3-8[8:1],7-4[8:1],3,7,1-3[8:1],5-7[8:1],1-5[8:1],5<4[8:3],
{8}1b,,,{16}7,6,{2}5bw1b[8:1],
{8}1bx-4b[8:1]/2bx-5b[8:1],2bx/1bx,E2f,,8bxv5b[8:1]/7bx-4b[8:1],8bx/7bx,E8f,,
{8}1bxq5b[8:1]/2bxpp4b[8:1],1bx/2bx,E2f,,8bxV64b[8:1]/7bxv5b[8:1],8bx/7bx,E8f,,
{8}1b-5[8:1]*-4[8:1],2b/8b,,,8b-4[8:1]*-5[8:1],7b/1b,,,
{8}1b-5[8:1]/8b-4[8:1],2b/7b,,,1bs5[8:1]/8bz4[8:1],3b/6b,,,
{1}5x/4x<3[4:5],
{4}Ch[4:3],,,4x-8b[8:1],
{4}5bh[4:1],{16}1,2,5,6,2x,3,5,6,3,4,6,7,
{16}1bx,2,8,7
,1,2,8,7,2x,3,7,6,3,4,6,5,
{4}1/4bh[4:1],{16}3,4,2bx,5,3x,4,1,6,2,5,1,6,
{16}2bx,5,8,7,1-3[8:1],6,8-4[8:1],7,{8}1x-5[8:1],8x-6[8:1],1x,8x,
{4}1bh[4:1],{16}8,7,6,5,1x,8,7,6,2,1,8,7,
{16}3bx,2,1,8,4,3,2,1,5x<7[8:1],4,3,2,{4}5x-1[8:1],
{4}8bh[4:1],{16}2,8,2,8,3x,8,3,8,4,8,4bx,8bx,
{16}5bx,8,5,8bx,6-2[8:1],8,6bx,8,{4}6x>7[4:1],C,
{4}4bh[4:1],{16}6bx,5,6h[16:1],,3bx,4,3h[16:1],,7bx,5,6h[16:1],,
{16}2bx,4,3h[16:1],,8bx,6,7h[16:1],,1bx-5[8:1],3,2h[16:1],,{4}1bx>4[8:1],
{4}7bh[4:1],{16}3bx,7,5,7,1bx,7,5,7,2bx,7,5,7,
{16}8bx,7,5,7,3bxqq8[4:2],7,5,7,{2}3x,
{4}4bh[4:1],{16}8,1,2,3,{12}46,46,46,37,37,37,
{12}26,26,26,{8}1b>3-7[8:3]/7b<5-1[8:3],B2/B6,{4},,
{8}35,26,{16}1>4[8:1],8,{8}2,17,6,5,3,
{8}64,73,{16}8<5[8:1],1,{8}7,82,3,4w8[8:1],26,
{1}4b,
{4}7h[2:1]/B7,C,,,
{4}6h[2:1]/B6,C,,,
{4}5h[2:1]/B5,C,B1,,
{4}4h[2:1]/B4,C,B8,,
{4}3h[2:1]/B3,C,B7,A7,
{4}2h[2:1]/B2,C,B6,A6,
{1}1b>8[2:1]/Cf,
(170){4}1bx/5bx,26,37,48,
(180){4}1bx/5bx,26,37,48,
(190){4}1bhx[8:1]/5bx,2h[8:1]/6,3hx[8:1]/7x,4h[8:1]/8,
(200){4}1bx/5bhx[8:1],2/6h[8:1],3x/7hx[8:1],4/8h[8:1],
(210){4}1bhx[8:1]/5bhx[8:1],2xh[8:1]/6xh[8:1],3hx[8:1]/7hx[8:1],4xh[8:1]/8hx[8:1],
(220){4}1bhx[8:1]/5bhx[8:1],2xh[8:1]/6xh[8:1],3hx[8:1]/7hx[8:1],4xh[8:1]/8hx[8:1],
(230){4}1bhx[6:1]/5bhx[12:1],2xh[6:1]/6xh[12:1],3hx[6:1]/7hx[12:1],4xh[6:1]/8hx[12:1],
(240){4}1bhx[12:1]/5bhx[6:1],2xh[12:1]/6xh[6:1],3hx[12:1]/7hx[6:1],4xh[12:1]/8hx[6:1],
(255)
{32}1bx/Cf,2x,3x,4x,5x,6x,7x,8x,1x,2x,3x,4x,5x,6x,7x,8x,1bhx[64:1]/Cf,2hx[64:1],3hx[64:1],4hx[64:1],5hx[64:1],6hx[64:1],7hx[64:1],8hx[64:1],1hx[64:1],2hx[64:1],3hx[64:1],4hx[64:1],5hx[64:1],6hx[64:1],7hx[64:1],8hx[64:1],
{64}1bx/Cf,D2,A2,D3,A3,D4,A4,D5,A5,D6,A6,D7,A7,D8,A8,D1,A1,D2,A2,D3,A3,D4,A4,D5,A5,D6,A6,D7,A7,D8,A8,D1,{4}1bxw5b[8:1]/Cf,,
{4}2x-5[8:1],8x-4[8:1],1x-5[8:1],7x-4[8:1],
{4}3x-8[8:1],5x-1[8:1],4x-8[8:1],6x,
{8}17,17,1b/7b,,12,38,47,56,
{16}5h[16:3]/6,,,1h[16:3],,,3,,{4}3v1[8:1]/7v5[8:1],,
{16}2h[4:1],,,,8x,7x,6x/2h[4:1],,,,7x,6x,5x/2,,,,
{8}46,46,37,37,B2,B8,B3,B7,
{8}82,82,8b/2b,,87,61,52,43,
{4}3/4>8[4:1],8<4[4:1],4V68[4:1],8-4b[4:7],
{4}B4,B3,B2,B1,B7,B6,B5,Ch[4:1],
{8}8,8,1bh[4:1],,{16}7,6,{8}5,1,1,
{8}8,8,{16}2,3,{8}4,7-3[8:1],7,1-5[8:1],1,
{16}7h[4:1],,,,4x,3x,2x/7h[4:1],,,,3x,2x,1x/7,,,,
{8}53,53,6>4-7[8:3]/2<8-3[8:3],62,{2},
{8}1-5[8:1],1,8bh[4:1],,4,37,26,15,
{16}8hx[4:1]/A4,D4,A3,D3,A2,D2,A1,D1,4hx[4:1]/A8,D8,A7,D7,A6,D6,A5,D5,
{4}4x-8[8:1]/2bhx[8:1],2bhx[8:1],4x-6[8:1]/2bhx[8:1],2bhx[8:1],
{4}4x-2[8:1]/7bhx[8:1],7bhx[8:1],4x-8[8:1]/7bhx[8:1],7bhx[8:1],
{8}16,25,3b/4b,,18,18,18,18,
{16}2h[16:3]/7,,,4h[16:3],,,8,,{8}1v3[8:1]/5v7[8:1],1h[8:1]/5h[8:1],,,
{16}2x-4[8:1],,,,8x,7x,6x,,1x-5[8:1],,8x,7x,6x,,,,
{8}46,46,37,37,E2,E8,E3,E7,
{12}1,8,1,8,1,8,2,7,2,7,2,7,
{24}1b,2,3,4,5,6,7s3[8:3],8,1,2,3,4,{2}5h[4:5],
{4}E4,E3,E2,E1,E4/E8,E3/E7,E2/E6,E1/E5,
{8}8,8,1b/7b,,{16}6,5,{8}6,1,1,
{8}8,8,{16}3,4,{8}3,6-2[8:1],6,4h[4:1],,
{16}7x-5[8:1],,,,1x,2x,3x,,8x-4[8:1],,1x,2x,3x,,,,
{8}35,35,2/4w8[8:1],24,{2},
{8}8-4[8:1],1,2bh[4:1],,6,37,48,15,
{1}2bp4[4:2]/6bp8[4:2],
{4}1/5bx,2,3,4,
{4}5/1bx,6,7,8,
{4}1/5bx,2,3/7bx,4,
{4}5/1bx,6,7/3bx,8,
{8}1/5bx,2,3/5bx,4,5/1bx,6,7/1bx,8,
{8}1/5bx,2,3/5bx,4,5/1bx,6,7/1bx,8,
{16}1/5bx,2,3,4,5/1bx,6,7,8,1/5bx,2,3,4,5/1bx,6,7,8,
{32}1/5bx,2,3,4,5,6,7,8,1/5bx,2,3,4,5,6,7,8,1/5bx,2,3,4,5,6,7,8,1/5bx,2,3,4,5,6,7,8,
{1}1b-3v6[4:5]*-3-7-5b[4:7]/5bx,
