&title=ブツメツビーターズ
&artist=有形ランペイジ
&first=-1.046
&des=藍原 椿 Lv.30
&lv_5=14
&des_5=藍原 椿 Lv.30
&inote_5=
(160){4},{16},,,,,,,,,,,,6x/B1,
,,3x/B5,,,{8}B3/7x>5[4:1],,1xh[4:1],{16},,,,2x/E7,
,,5x/B1,,,{8}B6/3xV17[4:1],,B4f,{16},,,,8x/E7,
,,6x/B1,,,{8}E5/2x<4[4:1],,6xh[4:1],{16},,,,7x/B4,
,,3x/B8,,,{8}B2/6xV82[4:1],,B4f,{16},,,,8x/4x,
,,5,{8}7,7,5h[8:1],7,4h[8:1],6,
{16}4x/7x,,,6,{8}4,4,6h[8:1],4,5h[8:1],3,
{16}5x/2x,,,3,{8}5,5,2h[8:1],4h[8:1],{16}1,4,1,4,
{2}1x-5[8:1],{16}6/4,,,8/1,,,{8}4/2,
{1}Cf/5s1[4:5],
{2},,5h[2:1],
{4}7h[4:1],6,
{16}1h[16:3],,,3h[16:3],,,{8}4,{2}4-1[8:1],
8h[2:1],2h[2:1],
{16}4h[16:3],,,5h[16:3],,,{8}6,{2}6-4[8:1],
3h[2:1],{16}6h[16:3],,,4,,,{8}5/3,
2/4h[4:3],{16}E2,B1,B8,E8,{8}A7,{16}D2,A2,D3,A3,{4}D4,
{8}3/5,3,1/3,3,{16}3/7h[16:3],,,4,{8}7,5,
8-6[8:1],6,5-8[8:1],4,{4}3<6[8:1],C,
{16}7/5h[16:3],,,7,{8}5,8,{4}8-4[8:1],{8}3,2,
1-6[8:1],2,5<3[4:1],4,{4}5,B5/B4,
{8}6/4,6,8/6,6,{16}6/2h[16:3],,,5,{8}2,4,
1-3[8:1],3,4-1[8:1],5,{4}6>3[8:1],1,
{8}2/4,1,8,7,{16}5,5h[8:1],,7h[16:3],,,{8}6,
5,8x/3x,{24}E3,B2,B1,E7,B6,B5,{16}4x/8x,,,2x/5x,,,{8}1x/8x,
7x/4x,5,4/7-1[8:1],6,7/4-2[8:1],5,7/4,6,
2/5,4,5/2-8[8:1],3,2/5-7[8:1],4,2/5,3,
4/7,8,3/1-5[8:1],2,1/3-1[8:1],4,3/5,6,
7/1,2,8/3,4,{4}5-2[8:1],{24}E1,B8,B7,E7,,,{8}6x/1x,
8,1/6>4[8:1],7,6/1>3[8:1],8,6/1,7,
3/8,1,8/3<5[8:1],2,3/8<6[8:1],1,3/8,2,
1/5,2,3/7,8,1/2,{16}3,1,{8}4,5,
{2}6x-1[8:1]/7xqq4[2:1],{16}E1/B8,,,A3/E4,,,{8}2,
6bx/2bx>5[8:1],1,8,7,6,5,4b<7[8:1],3,
2,1,8,7,{16}6xh[16:3],,,5xh[16:3],,,{8}4x,
3b>8[8:1],4,5,6,7,8,1b<6[8:1],2,
3,4,5,6,{12}7b,7,4,8b,8,3,
{8}7b,6/2,{16}3,5,3,5,3xh[8:1],,,4xh[8:1]/2xh[8:1],,,{8}5x/1x,
6,7/3,{16}6,4,6,4,6xh[8:1],,,5xh[8:1]/7xh[8:1],,,{8}4x/8x,
{16}1,3,1,4,,,8,6,8,5,,,1,8,1,8,
{32},,,,,,,,8<2b[8:3]/1>7b[8:3],B8/B1,Cf,B5/B4,{8}E5,{16},,,,,,,,1-5[8:1],
8,{8}1,7,6,5/3,{16}2,4,,4,{8}2-8>1-5[4:1],
5,6,7,8,7/4,{16}6,5,,7,8,6,
{8}1>4[8:1],7,6/1,5,{16}3,3h[8:1],,5,6,7,{8}8h[16:3],
{16}4>5[4:1],4,,Cf,,,,,,,{8}7x/4x,{16},5x/2x,,,8,
1,{8}7-5>4[8:1],8,1,2h[8:1],{16}3,2,,2,{8}4,
1-5[8:1],8,1-6[8:1],7h[16:1],1,8,7/5,4,
3>8[8:1],4,5/3,6,{16}7xh[8:1]/1xh[8:1],,,6xh[8:1]/4xh[8:1],,,{8}8bxh[4:1]/2bxh[4:1],
{16},,,,1,7,1,7,1x,,,3x/5x,,,{8}7x/8x,
6b/1b,{16}2,5,{8}3-8[8:1],4,5/3,{16}6,6h[8:1],,1,{8}7,
2-5[8:1],1,8-4[8:1],7,8,{16}2,2h[8:1],,4,,4,
{8}3qq4[4:1],4,3/5,6,{16}7,7h[8:1],,5h[8:1],,6,{8}5,
{16}5,7h[8:1],,6,7,6,7,6h[16:3],,,{8}8b,{16},6b/2b,,,1b,
5,{8}2v5[8:1],1,8/2,7,{16}6,4,,5,{8}7,
5-3[8:1],7,5-2[8:1],{16}6,6,{8}5,8,7/1,6/2,
5/3,{16}2,4,1,4,2,4,A1,A8,A7,A6,A5,A4,A3,A2,
7x/1xh[8:1],,,6/1h[8:1],,,{8}5/1h[4:1],,4<6[8:1],1,{16}1,2,
{8}3-8[8:1],7,3,6,5-1[8:1],2,5,3,
{16}2/8h[8:1],,,3/8h[8:1],,,{8}4/8h[4:1],,2>4[8:1],1,8,
7,6/4,{16}7,5,7,5,8,,,7/1,,,{8}6/2,
{16}3x/5xh[8:1],,,1/5h[8:1],,,{8}5h[4:1]/2V48[4:1],,,5,6,
7<4[8:1],8,7,1,6-1[8:1],2,6,3,
{16}8x/4xh[8:1],,,6/4h[8:1],,,{8}4h[4:1]/7-4-6[4:1],,,3,2,
1h[4:3],{16}A7,E7,B6,B5,{8}E5,{16}E3,E2,E1,E8,E7,E6,E5,E4,
{4}1bx>8[8:3],{16},,,,,,,,2,1,3,8,
4h[2:1],,,6,,,{8}7,8h[8:3],4,3,2,
1h[8:1],{16}7,1,7,1,{8}6h[8:1],5h[8:1],{16}8,5,8,5,{8}8h[2:1],
{16}6,,,1,2,3,{8}4q5[4:1],,,,,7/4,
{16}6,5,4,3,2,1,8,7,6,5,4,3,2,1h[2:1],
,,,2,3,4,5,6h[16:5],,,,,8,5,7,4<5-1[16:3],
,,,,,,,,8,7,6,5,4,3,2,1pp2<5b[16:11],
,,,,,,,,{2}4>1[8:1],
{16}1,5,{8}2,3/4,4/5,{2}5bh[16:3]/6bh[16:3],
{16}8,4,{8}7,6/5,5/4,{2}4bh[16:3]/3bh[16:3],
{16}1b>4[8:1],8,{8}1,7,6,5/3,{16}4,2,,8,{8}1>4v2[4:1],
5,6,7,8,7/1,{16}6,8,,5,3,4,
{8}1-5[8:1],5,6/1,7,{16}4,4h[8:1],,5,6,7,{8}8h[16:3],
{16}4>5b[4:1],4,,B8f/E8/E1,,,,,,,{8}7b/4b,{16},5b/2b,,,8,
1,{8}7v4[8:1],8,1,2h[8:1],{16}5,3,,4,2,4,
{8}1-3[8:1],8,1-5-3-8[8:3],{16}7,7,{8}1,8,7,6,
2>5[8:1],1,5/2,{16}6,6,1xh[8:1],,,7xh[8:1]/4xh[8:1],,,{8}8bxh[4:1]/2bxh[4:1],
{16},,,,1,7,1,7,2x/6x,,,3x/5x,,,{8}7x/8x,
6b/1b,{16}2,5,{8}3-8[8:1],4,5/3,{16}6,6h[8:1],,1,6,8,
{8}7<4[8:1],8,7/1-5[8:1],2,1/6,{16}7,7h[8:1],,5,6,4,
{8}3-8-2-4[4:1],4,3/5,6,{16}7,7h[8:1],,5h[8:1],,6,{8}5,
{16}5,7h[8:1],,6,7,6,7,5h[16:3],{32},,,,8bx,7x,{16}6x,{32},,4bx,3x,{8}2x,
{16}1b,5,{8}2-5-3[4:1],1,8/2,7,{16}6,6h[8:1],,1,{8}1h[8:1],
4,{16}2,2,{8}5h[8:1],{24}1,2,3,{8}4/6v8-5[16:3],7,6/3,2,
4x/1x,{16}2,3,2,3,2,3,1bh[8:1],,,2bh[8:1]/8bh[8:1],,,{8}3b/7bqq4b[0.375##0.9375],
{16},,E4f,E3,E2,E1,{8}E8,{16}A8f,A1,A2,A3,{4}A4,
{16}3x/B8,,,6x/B4,,,{8}B6/2x<4[4:1],,8bxh[4:1],{16},,,,7x/E3,
,,4x/B8,,,{8}B3/6xV82[4:1],,B5f/B4h[16:3]/E5h[4:1],{16},,,,1x/E3,
,,3x/B8,,,{8}E5/7x>5[4:1],,3bxh[4:1],{16},,,,2x/B5,
,,6x/B1,,,{8}B7/3xV17[4:1],,B5f/B6h[16:3]/E6h[4:1],{16},,,,1x/5x,
,,4,{8}2,2/4,{16}4h[8:1],E3,{8}B3,{16}5h[8:1],A3,{8}D4,
{16}5x/2x,,,3,{8}5,3/5,{16}3h[8:1],B5,{8}B6,{16}4h[8:1],A5,{8}D6,
4x/7x,{16}5,6,,7,{8}6,{16}1,8,1,8,1,8,1,8,
1b,5,2,8b,4,7,3b,5,2,8,{8}7bx<4b[16:1]/1bx>4b[16:1],{16},7b/1b,
E
&lv_6=14
&des_6=AAA围巾大喇叭批发
&inote_6=(160){4},,,,
{16}6h[8:1]/4h[8:1],,,7h[8:1]/5h[8:1],,,6/4q8[8:1],,,,24,,,,,,
{16}3h[8:1]/5h[8:1],,,2h[8:1]/4h[8:1],,,3/5p1[8:1],,,,75,,,,,,
{16}3h[8:1]/6h[8:1],,,1h[8:1]/4h[8:1],,,3V51[4:1]/6,,,,34,,,,,,
{16}6h[8:1]/3h[8:1],,,8h[8:1]/5h[8:1],,,6V48[4:1]/3,,,,65,,,,,,
{16}6h[16:3]/4,,,3,5,,1,,7<4[12:1],,6,,2,2,,,
{16}3h[16:3]/5,,,6,4,,8,,2>5[12:1],,3,,7,7,,,
{16}6h[16:3]/4,,,3,5,,1,,7V51[6:1],,6,,4,4,,,
{16}3h[8:1],,7h[8:1],,{24}4,3,2,{16}6,6,5,,,16,,,24,,
{8}3qq8[8:4],,,,7<4[4:1],,,,2h[4:1],,5h[4:1],,4h[4:1],,7h[4:1],,
6V48[8:3],,,,5<3[8:3],,,,4pp1[8:5],,,,8,,7,,
{8}6pp1[8:4],,,,2>5[4:1],,,,7h[4:1],,4h[4:1],,5h[4:1],,2h[4:1],,
{8}4,3,6,5,8v3[8:1]*p4[8:1],7,
,,{16}16,,2,4,3,4,2h[8:1],,8,1,7h[8:1],,5,6,3b,,
{8}7-5[8:1]/4-8[8:1],,47,,{16}7<4[8:1],,,3,,,1,,2-6[8:1],,,,8-3[8:1],,,,5q1[8:1]*<8[8:1],,,,5,,,,
{16}2>5[8:1],,,8,,,6,,7-3[8:1]*-4[8:1],,,,7,,,,{16}26,,,,8<5[8:1],,,,8-3[8:1]/1,,,,68,,,,
{8}2-4[8:1]/5-1[8:1],,25,,{16}2>5[8:1],,,6,,,8,,7<4[8:1]/1,,,,3-7[8:1],,,,1>4[8:1]*-6[8:1],,,,1,,,,
{16}2h[8:1],,3h[8:1],,4h[8:1],,5h[8:1],,8>3[8:1]*<5[8:1],,,,8,,,,
{16}6h[8:1],,2h[8:1],,{24}5,6,7,{16}3,3,4,,,38,,,57,,
{16}6h[16:3],,,5,6,,3,,8-4[8:1],,2>5[8:1],,8,,2,,
{16}7h[16:3],,,5,6,,3,,1>4[8:1]/7<4[8:1],,8,,71,,,,
{16}3h[16:3],,,4,3,,7,,2v5[8:1],,6-1[8:1],,2,,6,,
{16}3<5[12:1],,,,6p2[8:1],,,,1qq7[8:1],,,,2h[6:1],,,,
{16}6-1[8:1],,7,,3-7[8:1],,4,,5<8[8:1],,6,,4,,3,,
{16}2-6[8:1],,1,,8-3[8:1],,7,,5<8[8:1],,6,,4h[4:1],,,,
{16}7-3[8:1],,6,,1-6[8:1],,2,,4>1[8:1],,3,,5,,6,,
{16}3<5[12:1],,,,6p2[8:1],,,,1qq7[8:1],,,,2h[6:1],,,,
{8}6bpp1[4:3],,,,,,4bp2[6:5],,,,,,{6}7,6,5,{8}3bqq8[4:3],,,,,,5b,,,{16}6,5,6,,83,,
{12}2,6,5,7,3,4,
{16}2h[8:1],,8,,{24}3,4,3,{16}6,6,1>4[8:1],,,5,1,,6,,
{16}7h[8:1],,1,,{24}6,5,6,{16}3,3,8<5[8:1],,,4,8,,3,,
{16}6b,5b,7b,5b,,,3b,4b,2b,4b,,,7b,3b,5b,1b,,,,,
{48}2b/6bpp5[8:3],37,4qq5[32:10]/8,15,,,,,,,,,,,,,,,,,,,,,{4},
{16}3,4,2,,7,,5/6h[8:1],,8-3[8:1],,,7,8,,5>2[8:1],,6,,5-1[8:1],,7,,3,,2h[8:1],,4,3h[8:1],,6,,5,
{16}8<5[8:1],,7,,8-3[8:1],,2,,4V61[16:3],,,5h[16:3],,,,,7<4[16:2],7,,3h[16:3],,,,,1w5[8:1],,,,1b,,,,
{16}6,5,7,,2,,4/3h[8:1],,1-6[8:1],,,2,1,,4<7[8:1],,3,,1,,2h[8:1],,
{24}8,7,6,{16}5,,3h[8:1],,6h[8:1],,4h[8:1],,8-4[8:1],,2>5[8:1],,8,,2,,7h[8:1],,4,6h[8:1],,3,5,,{16}1h[8:1],,8h[8:1],,2,3,4,5,7,6,5,4,1,2,3,4,
{16}6,5,7,,1,,3h[8:1]/4,,6-1[8:1],,,2,6,,4<7[8:1],,3,,1-5[8:1],,2,,8,,7h[8:1],,4,6h[8:1],,3,,5,
{16}2>5[8:1],,1,,8-4[8:1],,7,,1-6[16:2],,,3h[16:3],,,,,2,5,4,5,3,6,5,6h[16:3],,,1b-5[16:1],,,1b/2b,,,
{16}3,4,2,,8,,6h[8:1]/5,,3-8[8:1],,,7,3,,5>2[8:1],,6,,8,,7h[8:1],,
{24}1,2,3,{16}4,,38,,7,,16,,{16}2h[16:2],,4,3,6,5,7h[8:1],,3,5,1,6,4,8,{32}2,3,4,5,{4}6b<4[4:5]/1h[4:7],,,,,,,,
{16}7h[16:3],,,6h[16:3],,,5<8[8:1],,,,4,,,4,,,
{16}2h[16:3],,,3h[16:3],,,4>1[8:1],,,,5,,,5,,,
{16}7,,,3,5,,2h[4:1]/4-8[8:1],,,,4,,,5,,,
{16}2,,,6,4,,7h[4:1]/5-1[8:1],,,,5,,,4,,,
{16}2,,,6,4,,3h[4:1]/8<5[8:1],,,,8v3[8:1]*p4[8:1],,,,,,
{16},,7,5,6,5,7h[8:1],,4,8,3,7,2,6,1,5,8bqq3[4:3],,,,4,,,,4,,,,4,,,,5>2[8:1],,,,6,,,,4<7[8:1],,,,3,,,,1pp6[4:3],,,,5,,,,5,,,,5,,,,7h[8:1],,4h[8:1],,5h[8:1],,2,,,,3b/4b,,,1b/6b,,,7<4[8:1],,,,8,,,,1-6[8:1],,,,2,,,,3>8[8:1],,,,4,,,,5-2[8:1],,,,6,,,,
{8}8bpp5[4:2]/1bqq4[4:2],,,,,,,,
{16}3h[8:1],,7h[8:1],,{24}4,3,2,{16}6,6,5,,,38,,,57,,
{16}3,4,3,,25,,6,5,8b-4[16:1],,,8b/3b,,,,,
{16}6,5,6,,74,,3,4,1b-5[16:1],,,1b/6b,,,,,
{16}3,4,2,,61,,7,5,8-4[8:1],,,3,8,,1>4[8:1],,2,,6-1[8:1]/1,,7,,65,,3,3,8,4h[8:1],,6h[8:1],,5,7-4[8:1],,3v8[8:1],,7,,3,,{16}7h[8:1],,1,5h[8:1],,3,8,,{16}2qq5[4:1],4,,{16}6h[16:3],,,,,7,,4b/8b,,,6b/2b,,,
{16}3,4,2,,71,,6,5,8-4[8:1],,,3,8,,1>4[8:1],,2,,61,,7h[8:1],,{24}5,6,4,{16}5-1[8:1],,2>5[8:1],,5,,2,,
8<5[8:1],,2-6[8:1],,8,,2,,7h[8:1],,4,5h[8:1],,2,4,,{16}3h[8:1],,6h[8:1],,{24}4,3,2,{16}5,5,1,4,2,5,3,6,4,7,
{8}3b>8[8:1]/8b<5[8:1],,8bV25[6:1]/3b,,4b-8[8:1]*-7[8:1]/8b,,4b,,
{8}6b<1[8:1]/1b>4[8:1],,1bV74[6:1]/6b,,5b-1[8:1]*-2[8:1]/1b,,5b,,
{8}7b^4[8:1]/3b^8[8:1],
,7b-3[8:1]/3b,,1b>4[8:1]*-6[8:1]/7b,,1b,,
{16}2,4,3,5,4,6,5w1[12:1],7,,,5b,,,3b/7b,,,
{16}5<8[8:1],4,6,,1>4[8:1]/5,,2,,1-6[8:1]/8,,,3,1,,4<7[8:1],,3,,42,,1h[8:1],,{24}8,7,6,{8}5-1[8:1]/3,2>5[8:1]/6,5,2,{16}7h[16:2],,4,6,3,5,2,4,1,5,2,6,3,7,4,8,
3h[16:2],,5,2,7,4,8h[8:1],,{16}6,7,4,5,2,3,1b,,
{16}6h[8:1]/4h[8:1],,,7h[8:1]/5h[8:1],,,6/4q8[8:1],,,,34,,,1,,,
{16}3h[8:1]/5h[8:1],,,2h[8:1]/4h[8:1],,,3/5p1[8:1],,,,65,,,8,,,
{16}6h[8:1]/3h[8:1],,,8h[8:1]/5h[8:1],,,6V48[4:1]/3,,,,65,,,2,,,
{16}3h[8:1]/6h[8:1],,,1h[8:1]/4h[8:1],,,3V51[4:1]/6,,,,34,,,7,,,
{16}3,5,2,6,4,7,3,6,5,7,4,8,6,7,5,5,{16}6,4,7,3,5,2,6,3,4,2,5,1,3,2,4,4,
{16}1,6,3,6,2,6,4,6,3,7,3,5,3,8,3,6,
{16}1,1,3,3,5,5,7-3[12:1],4,
{16}6,1w5[12:1],7b,,,1b,,,,,,,
