&title=RAVE-FUR-EVER
&artist=顾秋グライ & GU-RY
&first=0.05
&des=Rayton
&lv_2=2
&lv_3=5
&lv_4=12
&lv_5=14
&inote_2=(175)
{1},,,,1x,2x,3x,4x,5b/4b,,36,,27,,18,,1x-4[2:3]/7x-4[2:3],,3x>8[2:3]/5x<8[2:3],,
{2}E2,E4,E8,E6,
{4}2,2,8,8,1-5[2:1],,,,
{1}28,17,28,17,8p4[2:3],,1>5[2:3],,
{1}7p3[2:3],,1qq5[2:3],,
{2}12,2,78,7,{4}3,3,5,5,4xh[1:1],,,,5x<4[2:7],,,,,,,,,,,,,,,,
{2}6,68,2,13,{4}7,7,1,1,8-4[2:1],,,,
{4}1h[4:1],,2h[4:1],,3p7[2:1],,,,4h[4:1],,5h[4:1],,6<1[2:1],,,,
{4}7h[4:1],,8h[4:1],,1v3[2:1],,,,7h[4:1],,5h[4:1],,34,,25,,
{4}56,,57,,8<4[2:1],,,,17,,28,,3p4[2:1],,,,13,,34,,5pp4[2:1],,,,
{4}67,,18,,2h[1:1],,,,1<3[2:7],,,,,,,,,,,,,,,,
{2}B1,B6,B3,B8,Ch[1:1],,,,2h[2:1],,7h[2:1],,1h[2:1],,8h[2:1],,
{2}2,13,8,17,6,65,4-1[2:1],,8h[1:2],,,,2h[1:2],,,,
{4}7,7,7,6x,3,3,3,2x,
{4}1x/8x,1x/8x,1x/8x,1xx/8x,1x>4[2:1]/8x<5[2:1],,,,
{2}1h[2:1]/7,8,7h[2:1]/5,4,3h[2:1]/6,4,1-6[2:1]/2-5[2:1],,
{2}2h[2:1]/8,7,6h[2:1]/4,2,3h[2:1]/8,6,1>4[2:1]/7<4[2:1],,
{2}4h[2:1]/6,5,6h[2:1]/8,1,2h[2:1]/7,1,4-7[2:1]/3-8[2:1],,
{2}3h[2:1]/5,6,7h[2:1]/1,3,2h[2:1]/5,7,4>1[2:1]/6<1[2:1],,
{4}3b-8[2:1]/7b-4[2:1],,,,46,,28,,6-1[2:1]/1-4[2:1],,,,38,,16,,
{4}18,1,27,2,36,3,4xh[4:1]/5xh[4:1],,
{4}45,5,36,6,27,7,1xh[4:1]/8xh[4:1],,
{1}2x-6[2:1]/7x-3[2:1],
E
&inote_3=(175)
{1}Ch[1:3],,,,
{4}1x/8x,,1,,1x/8x,,8,,1x/8x,,27,,36,,45,,
{1}2x>5[2:1],8<5[2:1],2p5[2:1],8-4[2:1],
{4}6h[2:1],,4,4,3h[2:1],,8,8,7h[2:1],,2,2,1h[2:1],,7,7,8<2[2:7],,,,,,,,,,,,,,,,
{4}8x,8x,8x,8x,7x,7x,7x,7x,56,56,56,56,4>1[2:1]/5<8[2:1],,,,
{4}1h[4:1],,2h[4:1],,3h[4:1],,4h[4:1],,
{4}8h[4:1],,7h[4:1],,6h[4:1],,5h[4:1],,
{4}1h[2:1]/3,,2,,4h[2:1]/2,,3,,4h[2:1]/5,,6,,6h[2:1]/4,,3,,
{4}5<1[2:1],,,,4p1[2:1],,,,8qq5[2:1],,,,2p3[2:1],,,,
{2}17,28,17,68,
{4}8,7,6,5,4-8[2:1],,,,1>8[2:7],,,,,,,,,,,,,,,,
{4}B1/E2,,E7/E8,,E3/B4,,E6/B5,,
{4}B1,B2,B3,B4,Ch[4:3],,,,
{2}2h[4:1]/7h[4:1],3h[4:1]/4h[4:1],
{2}2h[4:1]/7h[4:1],5h[4:1]/6h[4:1],
{2}2h[4:1]/7h[4:1],4h[4:1]/5h[4:1],
{2}2h[4:1]/7h[4:1],1h[4:1]/8h[4:1],
{2}2h[4:1]/7h[4:1],3h[4:1]/4h[4:1],
{2}2h[4:1]/7h[4:1],5h[4:1]/6h[4:1],
{2}2h[4:1]/7h[4:1],4h[4:1]/5h[4:1],
{4}1x-5[2:1],,,,
{4}4h[2:1]/2,,1,,1h[2:1]/3,,5,,1h[2:1]/8,,6,,7h[2:1]/1,,4,,
{4}5h[2:1]/7,,6,,8h[2:1]/6,,5,,8h[2:1]/1,,4,,2h[2:1]/8,,4,,
{1}Ch[1:7],,,,,,,,1xq5[2:1],7<4[2:1],3-7[2:1],5v8[2:1],1h[1:1],8h[1:1],
{1}3h[1:1],5-1[2:1],
{4}2,2,2,2,2/8x<5[2:1],,,,3,3,3,3,3/6xv1[2:1],,,,35,46,5xh[4:1]/7xh[4:1],,
{4}17,28,1h[4:1]/3h[4:1],,
{4}12,2,34,3,5x-2[2:1]/6x-1[2:1],,,,
{4}7h[2:1]/8,,1,1,2h[2:1]/1,,7,7,6h[2:1]/5,,4,4,35,35,17,17,
{4}1h[2:1]/3,,4,4,6h[2:1]/3,,2,2,7/8h[2:1],,6,6,57,57,46,46,
{4}7h[2:1]/8,,1,2,2h[2:1]/1,,7,6,6h[2:1]/5,,4,3,35,35,17,17,
{4}1h[2:1]/3,,4,5,6h[2:1]/3,,2,3,7/8h[2:1],,6,5,57,57,46,46,
{4}1x/8x,2,1x/8x,7,1x/8x,1,1x/8x,8,1x/8x,2,1x/8x,7,1x/8x,1,1x/8x,8,
{4}1b/8b,1/8,2/7,3/6,4/5,4/5,3xh[4:1]/4xh[4:1],,
{4}4b/6b,4/6,3/7,2/8,1/7,1/7,2/6,3/5,4x,4x-8[2:1],
E
&inote_4=(175)
{4}2h[1:1],,,,8h[1:1],,,,1h[1:1],,,,6h[1:1],,,,2,28,7,71,2,21,8,81,
{4}27,27,36,36,45,45,38,38,
{1}2xh[4:7]/7-4-1-6-3-8[2:3],,7xh[4:7]/1-6-3-8-5-2[2:3],,
{4}1,1,71,61,7,7,37,27,1,1,15,16,7qq4[2:1]/8pp3[2:1],,,,
{4}6h[4:7],,1,2,{8}3p8[2:1],,,,,,,,
{4}2h[4:7],,5,6,{8}7q4[2:1],,,,,,,,
{4}8,17,26,35,5,46,37,28,
{8}1,1,7,7,2,2,6,6,3,3-8[8:1],,5,5qq7[4:1],,,,
{8}1b,,28,,24,,28,,7,,64,,68,,64,,3,,24,,28,,24,,1,,28,,1/7-4[8:1],,2b,,
{8}5x,,64,,68,,64,,3,,28,,24,,28,,7,,68,,64,,68,,5,,64,,5/3-8[8:1],,6b,,
{8}5pp8[2:1],,,,2,,,3,,4,4p2[4:1],,7,,,,6pp4[2:1],,,,3,,,2,,1,1q3[4:1],,7,,,,
{8}6,6,4,4,5-1[8:1],,2,,3,3,8,8,1-4[8:1],,7,,6,6,2,2,
{16}7x,1,7,1,7,1,7,1,
{8}7-4[8:1],,,3,3-7[8:1],,5,5,5x<3[4:7],,,,,,,,,,,,,,,,6<4[2:3],,,,,,,,,,,,,,,,
{8}75,,7h[2:1],,4,,4,,28,,2h[2:1],,6,,6,,7,7,3,3,8,8,4,4,
{8}1pp4[2:1]*qq6[2:1],,,,,,,,
{8}6xv1[8:1],,3,,2,,13,,2>5[8:1],,8,,7,,68,,5-1[8:1],,2,,3,,48,,
{8}4>1[8:1],,7,,6,,5b/7b,,
{8}8v2[8:1],,4,,3,,24,,1p4[8:1],,7,,8,,17,,6>3[8:1],,2,,1,,28,,
{4}3b-8[8:1],7b-3[8:1],1b-5[8:1],6b-1[8:1],
{8}4,,3,,82,,71,7,6-1[8:1],,2pp5[2:1],,8,,7,,
{8}7,,4,,68,,17,1,2-7[8:1],,5pp8[2:1],,1,,2,,
{8}2,,5,,46,,24,2,1>4[8:1],,8qq4[2:1],,3,,2,,
{8}2,,7,,68,,57,5,6,6-1[8:1],,2,2-6[8:1],,8,8,
{1}8xbpp4>5[2:7],,,,2p6[2:1],8p4[2:1],1>5[2:1],7q2[2:1],
{4}3h[1:1],B7/B6,,B6/B5,7h[1:1],B2/B3,,B1/B2,
{4}1xh[1:1],E7/B7,,E7/B6,5h[1:1],B4/B3,,B3/E3,
{4}2xh[1:1],B6/B7,,B7/B8,6h[1:1],B3/B2,,B4/B3,
{4}4xh[1:1],E7/B6,,E7/B7,8h[1:1],B1/B2,,B2/E3,
{4}3xh[4:7],8,8,7,{8}6,6,,7,7-5[8:1],,,,
{4}2h[4:7],5,5,6,{8}7,7,,8,8-6[8:1],,,,
{8}3,3,53,3,7-4[8:1]/3,,1b,,
{8}6,6,64,6,6<1[8:1]/2,,{24}B3,B4,B5,,,,
{8}3,3,5,5,4,4,6,6,{16}1,8,1,8,1,8,1,8,1-5[8:1],,,,7xb,,,,
{8}2-5[8:1],2,8-4[8:1],8,1w5[8:1],,,,3>8[8:1],3,7<4[8:1],7,2-5[8:1]*-6[8:1],,,,
{8}8-4[8:1],8,3-8[8:1],3,5<8[8:1]*>2[8:1],,,,6,5,4/7,7,3,4,25,2,
{8}6-1[8:1],6,4-8[8:1],4,5w1[8:1],,,,7<4[8:1],7,3>8[8:1],3,6-1[8:1]*-3[8:1],,,,
{8}4-8[8:1],4,7-4[8:1],7,1>4[8:1]*<6[8:1],,,,2,1,8/3,4,7,8,61,5,
{8}2,2-5[8:1],5>2[8:1]*<8[8:1],,,,5,46,7,7-3[8:1],3-6[8:1]*-1[8:1],,,,3,24,
{8}1,1>4[8:1],4<7[8:1]*q8[8:1],,,,2,13,
{8}8,7,16,4,2,1,38,5,
{8}3,3-1[8:1],1w5[8:1],,,,1,28,7,7<4[8:1],4-1[8:1]*-8[8:1],,,,4,35,
{8}6,6<1[8:1],1>4[8:1]*p5[8:1],,,,1,28,
{8}1,2,83,5,7,8,61,4,
{8}35,46,5/7-2[8:1],,3,,
{8}4/6-8[8:1],,5,,6-1[8:1]/4,,5,,3x/8x,,
{8}5/3-1[8:1],,4,,3-8[8:1]/5,,4,,5/3-1[8:1],,4,,6,6,4,4,
{8}7b-5[8:1],,1b-3[8:1],,8b-4[8:1],,1b-5[8:1],,8b-6[8:1],,2b-4[8:1],,1bp8[4:1],,,,
{8}4xb-2[8:1],,8b-6[8:1],,4b-1[8:1],,8b-5[8:1],,4bqq2[8:1],,8bqq6[8:1],,4bw8[8:1],,,,
{8}5xb,5xb-1[8:1],,3xb,3xb-7-3[4:1],,,,
E
&inote_5=(175){1},,,{4},,,,
{4}3h[1:1],B5/B6,,B5/B6,5h[1:1],B3/B2,,B3/B2,2x,2x,24,25,
{8}3,3,5,5,
{16}4,6,4,6,3,5,3,5,
{1}2<7-3[2:1]/6xh[4:3],7-5-1[2:1]/4h[4:3],8h[4:3]/3-5-2[2:1],7pp4[2:1]/1h[4:3],
{4}2,2,2/B8,2/B7,3,3,B7/3,B6/3,4,4,4/B6,4/B5,5xpp8[2:1]/4xqq1[2:1],,,,
{8}6xh[1:1]/Cf,,,,4,,4,,3-1[8:1],3,,6-4[8:1],6,,2,,2h[1:1],,,,1,,1,,
{8}8-6[8:1],8,,3-5[8:1],3,,7,,
{4}4h[8:1]/8,5h[8:1]/1,6h[8:1]/2,7h[8:1]/3,8h[8:1]/4,1h[8:1]/5,6/2h[8:1],3h[8:1]/7,
{8}4h[8:1]/8,8,5h[8:1]/1,1,6h[8:1]/2,2,7h[8:1]/3,3,
{16}4,8,4,8,3,7,3,7,
{24}2,3,4,7,6,5,
{4}4/8xw4[8:1],8b`Cf,
{16}7,8,7,1h[8:1],,8,1,7,,2,1,2,8h[4:1],,,,
{16}1,8,1,7h[8:1],,8,7,1,,7,8,7,1h[4:1],,,,
{16}8,1,7,8h[8:1],,7,8,6,,1,8,2,1h[4:1],,,,
{16}3,1,2,1,3v5[8:1],,8x,,7b,,,,6h[4:1],,,,
{16}3,4,3,5h[8:1],,2,4,3,,6,5,6,4h[4:1],,,,
{16}6,4,5,3h[8:1],,4,3,5,,3,4,3,5h[4:1],,,,
{16}4,5,3,6h[8:1],,3,4,2,,5,4,6,
{4}5b-2[8:1],7b-4[8:1],1b-6[8:1],3xb,
{16}5xh[4:1],,,,3,4,3,4,2,4,3,4,2,4,3,4,
{16}2xh[4:1],,,,6,5,6,5,7,5,6,5,7,5,6,5,
{16}7xh[4:1],,,,4,5,4,5,3,5,4,5,3,5,4,5,
{16}2xh[4:1],,,,5,4,5,4,6,4,5,4,5x-1[8:1],,4x,,3b,,,,
{16}3x,4,3,4,2,5,4,5,1,6,5,6,8xh[4:1],,,,
{16}6,5,6,5,7,4,5,4,8,3,4,3,1xh[4:1],,,,
{16}2,4,3,5,4,6,5,7,
{24}E5,E4,E3,E2,E1,E8,
{8}E7/5x-1[8:1],5x,,2x-5[8:1],2x,,7x-5-3-1-7<7[4:15],7x,
{8}5xh[4:7],,,,,,,,,,,,,,,,2xh[4:7],,,,,,,,,,,,,,,,
{4}1,1,1/7-4[8:1],1,2,2,2/5<8[8:1],2,
{8}3,3,7,7,{16}4,6,4,6,{24}3,4,5,7,6,5,
{8}1xs5[4:1],,,,8x-4[8:1]b,,8x,,
{16}2x,1,2,,2,1,2,,2,1,2,,2,1,2,,
{16}3,4,3,,3,4,3,,3,4,3,,3,4,3,,
{16}6,5,6,,6,5,6,,6,5,6,,6,5,6,,
{16}7,8,7,,7,8,7,,7w3[8:1],,6x/8x,,,,,,
{16}7x,8,7,,7,8,7,,7,8,7,,7,1,8,,
{16}2,1,2,,2,1,2,,2,1,2,,2,1,2,,
{16}3,4,3,,3,4,3,,3,4,3,,3,4,2,,
{4}5b-1[8:1],4b-2[8:1],6b-8[8:1],4b,
{16}2,4,3,,3,4,3,,3,5,3,,3,4,3,,3,4,2,,5,4,6,,3-5[8:1],,5-1[8:1],,6,,7,,8b,,8,,
{16}2,8,1,,1,8,1,,1,7,1,,1,8,1,,1,7,8,,7-4[8:1],,4-8[8:1],,3,,2,,1b,,1,,
{16}7,1,8,,8,1,8,,8,2,8,,8,1,8,,8,2,1,,3-1[8:1],,1-5[8:1],,8,,7,,6b,,6,,
{16}6,4,5,,5,4,5,,5,3,5,,
{32}7b/2x,3,4,5,7xb,,,,,,,,1b/7x,6,5,4,1xb,,,,,,,,
{32}8b/2x,3,4,5,8xb,,,,
{1}8xbpp4>5[2:7],,,,
{4}Ch[1:3],,,,2xh[2:1],,,,1xh[2:1],,,,8xw4[2:1],,,,
{4}6h[2:1],,B2/B3,,4,4h[4:1],B5/B6,,8h[2:1],,B2/E3,,2,2h[4:1],B4/B5,,
{4}2>6[2:1],2,B6/B5,,8-4-6[2:1],8,B2/B3,,3-5-8[2:1],3,B6/E7,,7qq4[2:1],7,E1/B1,,
{8}1,,1,,8,,8,,
{32}1b/7x,6,5,4,1xb,,,,,,,,8b/2x,3,4,5,8xb-4[8:1],,,,,,,,,,,,,,,,
{8}2,,13,,8,,17,,
{32}1b/6x,5,4,3,1xb,,,,,,,,7b/2x,3,4,5,7xb-3[8:1],,,,,,,,,,,,,,,,
{8}21,2,23,2,2>4[8:1]/1,,{24}6x,7x,8x,,,,
{8}71,7,75,7,7>2[8:1]/1,,{24}3x,4x,5x,,,,
{16}3,,3,,7,,7,,4,8,4,8,{24}3,2,1,7,6,5,
{8}4/8-4[4:1],,,,8w4[8:1],,8b,,
{8}8,1,{8}2x>5[8:1]/7x,{16}8,8,{8}2-6[8:1],1-5[8:1],2,1,
{8}4,3,{8}2x/8p4[8:1],{16}1,1,{8}8<5[8:1],2q6[8:1],8,2,
{8}1,8,{8}7x/1x-5[8:1],{16}6,6,{8}1>4[8:1],7p3[8:1],1,7,
{16}2-8[8:1],,8x-4[8:1],,7,7,,6x,,7x,5,6,4,5,3,4,
{8}2,2,{8}7-3[8:1]/3,{16}4,4,{8}7-5[8:1],5x-1[8:1],7x,4,
{8}3,3,{8}7x/2-6[8:1],{16}6,6,{8}2>5[8:1],5-1[8:1],2x,6,
{8}7,7,{8}2x/8-4[8:1],{16}1,1,{8}8>3[8:1],3<6[8:1],8x,,
{16}1x,,2,2h[8:1],,8,8h[8:1],,5x,7,4,6,3,5,2,4,
{16}1,,27,,3/8<5[8:1],,4,4,8p4[8:1],3,3,,8,,1,,
{16}2x/5x,,36,,4/7<4[8:1],,3,3,7-3[8:1],2,2,,7,,8,,
{16}1x/7x,,26,,3/5-7[8:1],,4,4,5-1[8:1],3,3,,5,,2,,
{16}2x>5[8:1],,5p1[8:1],,6,6,,7x,,7,5,6,4,5,3,4,
{16}2x,,62,,5/1>4[8:1],,6,6,1q5[8:1]b,7,7-4[8:1],,1,,7,,
{16}2x,,36,,4/7<4[8:1],,2,2,7p3[8:1]b,1,1q5[8:1],,7,,1,,
{16}7x,,82,,3/1>4[8:1],,8x,8x,1q5[8:1]b,7,7-4[8:1],,1,,7,,
{16}2x,,7,7h[8:1],,1,1h[8:1],,4x,2,5,3,6,4,7,5,
{8}8b,7b/3b,6b/2b,,
{4}6-1[8:1]/2-5[8:1],6b/2b,8<5[8:1]/4>1[8:1],8b/4b,2v5[8:1]/6v1[8:1],C,
{4}8-3[8:1]/4-7[8:1],8b/4b,1-6[8:1]/5-2[8:1],5b/1b,1<6[8:1]/5>2[8:1],5b/1b,
{4}7v4[8:1]/3v8[8:1],C,
{4}2b-4[8:1]/1b-5[8:1],2b-6[8:1]/1b-7[8:1],2b-4[8:1]/1b-5[8:1],
{4}2b-6[8:1]/1b-7[8:1],
{4}2b-4[8:1]/1b-5[8:1],2b/1b,
{16}1xb/8xb,,,2xb/7xb,,,,,
{4}7b-3[8:1]/8b-4[8:1],7b<4[8:1]/8b>3[8:1],8b/7b,
{8}1b-4[8:1]/7b-4[8:1],6b/2b,1b/7b,,
{16}2b/6b,,3xb/7xb,3xb/7xb,3xb-8[8:1]/7xb-4[8:1],,2xb/6xb,,3xb/7xb`C,,,,
{32}1b/7x,6,5,4,1xb,,,,,,,,8b/2x,3,4,5,8xb-4-8[4:1],,,,,,,,Chf[8:1],,,
E
