&title=What's up? Pop!
&artist=Capchii
&first=-1.4
&des=プロセカ Chart Team
&lv_5=14+ | 14.8
&inote_5=(190){1},
{16},,,,,,,,,,,,,,,,
{16}1x/7x,,,,2/8,,,,3,,3h[8:8],,,,B3,,
{16},,E1,,,,B6,,,,5,,6,,7,,
{16}2h[8:2]/8,,,,4,,3,,5,,5h[8:8],,,,B1,,
{16},,B3/B4,,,,E7,,,,E1,,,,,,
{16}8/2,,,,7/1,,,,6,,6h[8:8],,,,B6,,
{16},,E1,,,,B3,,,,4,,3,,2,,
{16}1/7h[4:1],,,,4,,5/3h[4:1],,,,7,,8/6h[4:1],,,,
{48}D2,,A2,,D3,,A3,,,E1/B8,,,E2,,B2,,B3,,B4,,,E8/B7,,,D4,,A4,,D54,,A5,,,E7/B6,,,E2,,,,E3,,,,E4,,,,
{16}8x,,,,6/1,,,,2/8,,2>7[8:4]/8,,,,B6,,
{16},,E5,,,,B3,,,,1,,8,,7,,
{16}6/2,,,,3/5,,4,,2,,2h[4:1],,,,7-5[8:1],,
{16},,1-3[8:1],,,,4-8[8:1],,,,2h[4:1],,,,1,,
{24}2x/8xh[4:1],3,4,5,,,,,,1x/7xh[4:1],2,3,4,,,,,,8x-4[16:5]/6x,1,2,3,,,
{16},,,,,,,,6h[4:1],,,,4,,,,
{24}7x/1xh[4:1],6,5,4,,,,,,8x/2xh[4:1],7,6,5,,,,,,1x/3x,8,7,6h[8:3],,,
{16}3,,,,1q5[8:1],,,,1x/5x,,,,6x<1[8:1],,,,
{16}5b/6b,,,,3,4,3h[8:1],,1,,8/2>5[8:1],,,,2x/5x,,
{16},,6,,7,8,7,,1/6<1[16:3],,,1,,,2,,
{16}3x,3,4h[8:1],,2,,2h[8:1],,8,,1/7<4[8:1],,,,4x/7x,,
{16},,3,,2,2,8xh[4:1],,,,1,1,1,1,1,1,
{16}2b,,,,7,8,7h[8:1],,4,,5/3>8[8:1],,,,3x/8x,,
{16},,7,,6,5,6,,4x-8[32:5]/7x,,,7,,,6,,
{16}5b<8[8:1]/1x,,,,1,,2b>5[8:1],,,,6,,7b,,7,,
{16}8,,2,2,1<5[16:4],,1,,4,,3,,2,,1,,
{16}8x>3[8:1]/4x,,,,8b/6b,,6,,7,7,5>2[8:1],,,,5x/6x,,
{16},,1/8,,7,8,7,,5-1[16:3]/6,,,8,,,7,,
{16}6x,6,8h[8:1],,5,,5h[8:1],,1,,8/2>5[8:1],,,,2x/5x,,
{16},,7/8,,1,8,1x,,2/4,,3,3,3,3,3,3,
{16}3b>8[8:1],,,,7,,6b>3[8:1],,,,2,,1b<6[8:1],,1,,
{16},,5,,5,,5,,4h[8:1]/6xh[8:1],,,3h[8:1]/7h[8:1],,,2/8,,
{16}1b>4[8:1],,,,5,,6b<1[8:1],,,,2,,3bh[4:1],,,,
{16}1,3,1,3,8,2,8,2,7,1,7,1,6,8,6,8,
{16}6xh[8:1],,,,5h[8:1]/2,,,,4/2h[16:3],,,3h[16:3],,,4,,
{16}4/6h[8:1],,,,5/7h[8:1],,,,8h[16:3]/4,,,7h[16:3],,,6,,
{16}6/1h[8:1],,,,2h[8:1]/7,,,,3h[16:3]/8,,,4h[16:3],,,5,,
{16}5/7h[8:1],,,,4/6h[8:1],,,,3h[16:3]/5,,,2h[16:3],,,1,,
{16}1xh[8:1]/7,,,,2h[8:1]/8,,,,1/3h[16:3],,,4h[16:3],,,5,,
{16}5/7h[8:1],,,,6h[8:1]/4,,,,3h[16:3]/5,,,2h[16:3],,,1,,
{16}1/5h[8:1],,,,2/6h[8:1],,,,3/7h[16:3],,,8h[16:3],,,1,,
{16}1h[8:1]/2,,3,,8h[8:1]/1,,2,,3h[8:1]/7h[8:1],,,2h[8:1]/6h[8:1],,,1h[4:1]/5,,
{16},,5x,,3x/7x,,,,2h[8:1]/4,,,3h[8:1]/5,,,4/6,,
{16}7h[8:1],,5,,6h[8:1],,4,,8h[8:1]/2,,,7h[8:1]/1,,,6/8,,
{16}4h[8:1],,6,,3h[8:1],,5,,6h[8:1]/4,,,5h[8:1]/3,,,4/2,,
{16}1h[8:1],,5,,3h[8:1],,7,,2h[8:1]/4,,,3h[8:1]/5,,,4/6,,
{16}2xh[8:1]/7x,,8,,1h[8:1]/7,,8,,7/5h[8:1],,6,4h[8:1],6,,5/3,,
{16}7h[8:1]/2,,1,,8h[8:1]/2,,1,,2/4h[8:1],,3,5h[8:1],3,,4/6,,
{16}1h[8:1]/2,,3,,8h[8:1]/1,,2,,7h[8:1]/5,,4,6h[8:1],4,,5/3,,
{16}2h[8:1],,4,3,5,4,5,4,6,5,6,5,7x,,7x,,
{16}2b/8b,,3,4,2h[8:1],,1,,7,8,7,8,6,,5/4,,
{16}3,4,2,4,3h[8:1],,8,,7,5,6,5,7,,4/8,,
{16}2,1,3,4,3,5,4h[8:1],,6,5,7,8,7,1,8h[8:1],,
{16}4x,,6x-1[8:1]/2x-6[8:1],,,,6>2[16:3]/2,,,,8,,7,,6,,
{16}2x,5,3,4,2h[8:1],,8,,7,8,6,1,7,,6/1,,
{16}2x,4,3,1,2,4,1x,8,5x,7,8,6,5,7,4h[8:1],,
{16}6,5,7,5,6h[8:1],,8,,2,1,3,1,2h[8:1],,4,,
{16}2b/4x-7[8:1],,,,4b/2x-5[8:1],,,,2b/8x-3[8:1],,,,8b/4xh[8:1],,,,
{16}6x,5,7,8,6,5,7h[8:1],,3V51[16:3],,1,,3,,7,,
{16}8,2,8,2,8,,7/3,,1/5,,2,4,3,4,2h[8:1],,
{16}8,1,7,8,6h[8:1],,5,,4,5,3,4,2,5,1h[8:1],,
{16}5x,,3x-8[8:1]/7x-3[8:1],,,,3<7[16:3]/7,,,,1,,2,,3,,
{16}8b<6[8:1]/4xh[4:1],,,,8,,,,(200)5xh[4:1]/3b>1[8:1],,,,3,,,,
(210){16}8xh[4:1]/7b<5[8:1],,,,7,,,,(220)4xh[4:1]/2b<8[8:1],,,,2,,,,
(230){16}7x/3x,,7/3,,8x/4x,,8/4,,1x,5,1,5,2x,6,2,6,
{16}3,,,,4w8[8:1],,,,4b,,,,2x/6x,,,,
{16}5,,,,4b/7x,,,,6b/2x,,,,3b/8x,,7b,,
{16}1b/6x,,,,7b/5x,,,,2b/4x,,3b,,8b/4x,,7xb,5xb,
{16}6xb,,,,3b/7x,,,,2xb,1b,2xb,1b,3xb,,3b,,
{16}4b/8xh[8:1],,,7xh[8:1]/3b,,,6b/2x,,2b-6[8:1]/6x,,,,2,,,,
{16}7x,,8<5[8:1],,,,4,,3>8[8:1],,,,7,,6>3[8:1],,
{16},,2,,1<6[8:1],,2,,3,,4>1[8:1],,5,,5,,
{16}6x-1[8:1],,,,2,,3-6[8:1],,,,7,,8-3[8:1],,,,
{16}4,,5,,5h[4:1],,6,,7-4b[8:1],,7,,,,,,
{16}1x/5x,,,,3b/8x,,7b,,1b/6x,,2xb,4xb,3xb,,3b,,
{16}4x/8b,,7b,,6x/5b,,4b,,3x/8b,,2xb,1xb,2xb,1xb,2xb,1xb,
{16}3xbh[8:1],,,1x/5bh[8:1],,,6x/2b,,4x/8b,,7xb,5xb,,5xb,6xb,4xb,
{16}5xbh[8:1],,,6x/2xbh[8:1],,,3x/7b,,3b/7x-3[8:1],,,,7,,,,
{16}2x,,1>4[8:1],,,,5,,6<1[8:1],,,,2,,3<6[8:1],,
{16},,7,,8>3[8:1],,7,,6,,5<8[8:1],,4,,4,,
{16}3x-8[8:1],,,,7,,6-3[8:1],,,,2,,1-6[8:1],,1,,
{16},,5,,4<7[8:1],,4,,3,,3,,2,8,2,8,
(170){16}1b>1[4:13]*<1[4:13],,,,,,,,,,,,,,,,
{16},,,,,,,,,,,,,,,,
{16},,,,,,,,,,,,,,,,
{16},,,,,,,,,,,,,,,,
(180){16}7h[4:2],,,,,,,,B3/B2,,,,,,4h[16:9],,
(185){16},,,,,,,E8,,B6/E7,,,,,,,
(190){16}E1,,E2,,E8,,E3,,E7,,E4,,E6,,E5,,
(195){16}1x,,8,,7,,6,,5,,4,,3,,2,,
(200){16}1x/7x,,,,2/8,,,,6/5,,6<3[8:4]/5,,,,B3,,
{16},,E1,,,,B6,,,,5,,4,,3,,
{16}2x/8x,,8,,1,,7,,6,,5-7[8:1],,,,1-3[8:1]/5,,
{16},,8-4[8:1]/1,,,,2>5[8:1]/8,,,,2,,,,8,,
{24}7x/1xh[4:1],6,5,4,,,,,,8x/2xh[4:1],7,6,5,,,,,,1xw5[16:5]/3x,8,7,6,,,
{16},,,,,,,,7/3h[4:1],,,,5,,,,
{24}2x/8xh[4:1],3,4,5,,,,,,1x/7xh[4:1],2,3,4,,,,,,8x/6x,1,2,3h[8:3],,,
{16}6,,,,7pp5b[16:5],,,,7x/5x,,,,3xh[4:1],,,,
{16}8b,,6,5,7xh[8:1],,3,4,2xh[8:1],,6,5,7x<4[8:1],,3,,
{16}7>2[8:1],,3,,7-3[8:1],,3,,7,,4h[8:2],,1,,1,,
{16}2b/8b,,3,4,2xh[8:1],,6,5,7xh[8:1],,3,4,2x>5[8:1],,6,,
{16}2<7[8:1],,6,,2-6[8:1],,6,,2,,7h[8:2],,4,,3,,
{16}2b/8b<4[16:3],,,,4,,2,,8>4[16:3],,,,5,,7,,
{16}1xV75[16:3],,,,5,,3,,1V35[16:3],,,,5,,7,,
{16}1xp5[8:1],,,,4/1,,2q6[8:1],,,,2/8-4[8:1],,,,8,,
{12}3x,3,5,7x,7,4,2x,2,1,3x/8xh[4:1],,,
{16}4b,,7,8,6xh[8:1],,4,5,3xh[8:1],,1,2,8x<5[8:1],,4,,
{16}8>3[8:1],,4,,8-4[8:1],,4,,8,,2h[8:2],,6,,6,,
{16}5b/7b,,2,1,3xh[8:1],,5,4,6xh[8:1],,8,7,1>4[8:1],,5,,
{16}1<6[8:1],,5,,1-5[8:1],,5,,1,,7,,3x/8x,,,,
{32}1-6[8:1]/7,2,3,4h[32:5],,,,,1x,,,,3,,,,8-3[8:1]/2,7,6,5h[32:5],,,,,8x,,,,6,,,,
{32}2-6[8:1]/8,3,4,5h[32:5],,,,,2x,,,,3,,,,7-3[8:1]/1,6,5,4h[32:5],,,,,7x,,,,4,,,,
{16}2xb-6[8:1]/6xb,,,,2/6,,8x<5[8:1]*>3[8:1],,,,8x-4[8:1],,,,8/4,,
{32}3x,2x,1x,8x,7x,6x,5x,4x,3x,2x,1x,8x,7x,6x,5x,4x,3x/7wx3b[8:1],,,,,,,,7b,,,,,,,,
{16}1b/5b,,3,4,2,5,4,6,4h[8:1],,6,5,7x,1,8,2,
{16}1xh[8:1],,3,4,,4,2,7,5xh[8:1],,,8h[8:1]/3xh[8:1],,,2/5x,,
{16}8x/4x,,7/5,,6,5,,5,7h[8:1],,5,6,4,5,3,4,
{16}2xh[8:1],,6,6x/5,,3,3xh[8:1]/4,,8,,7,5,6,4,5,,
{16}3x/8x,,2,1,3,1,2,8,3h[8:1],,4,3,1x,2,8,1,
{16}7xh[8:1],,5,6,,6,4,5,2xh[8:1],,,4xh[8:1]/7h[8:1],,,1x/5,,
{16}6,,4b/8b,,2,1,3,1,2h[8:1],,4,3,5,4,6,5,
{32}7xb-3b[8:1]/4xb,,,,5xb/2xb,,,,7xb/3xb,,,,1xb,,1xb,,5xbh[8:1],,,,4xb,,4xb,,7xb,8xb,1xb,2xb,3xb,4xb,5xb,6xb,
{16}3x/7xb,,2,1,3,5,4,6,3xh[8:1],,5,4,6x,5,7,6,
{16}8xh[8:1],,2,1,3,6,5,7,1xh[8:1],,,3h[8:1]/8xh[8:1],,,2x/6,,
{16}8x/4x,,7/5,,6,5,7,4,6h[8:1],,5,6,4x,5,3,4,
{16}1xh[8:1],,7,7x/8,,2,2x>5[16:3]/1,,,,7,8,1,2,3,4,
{16}8b,6,1,7,2,8,3,1,2x,4,3,5,4,6,5,7,
{16}2x,4,3,6,5,7,2,1,4x,7,2,5,3,8,1,6,
{24}3xh[8:1],,,8x,7,6,5/2xh[8:1],,,8x,7,6,5/1bxh[8:1],,,7x,6,5,4/8bxh[8:1],,,7xh[48:1],6h[48:1],5h[48:1],
{32}4/2,,,,2xb/8xh[32:3],3,4,5,,,8xb/3xh[32:3],7,6,5,,,1xb/7xh[32:3],2,3,4,,,7xb/2xh[32:3],6,5,4,,,{48}1bV35<1>5V71b[8:30]*V75>1<5V31[8:30],B1f,Cf,B5f,A5f,,
{16},,,,,,,,,,,,,,,,
