&title=詩超絆
&artist=MyGO!!!!!
&first=0
&des=Chan!!
&clock_count=4
&lv_5=14
&inote_5=(73.33333)
{1},
{12}2>5[6:1]/6,,,,,,8<5[6:1],,,,,,1>4[6:1],,,,,,7<4[12:1],,,1-6[12:1],,,
{12}4>1[6:1],,,,,,4<7[6:1],,,,,,5>2[6:1],,,,,,5<8[6:1],,,,,,
{12}2>5[6:1],,,7,6,7,8<5[6:1],,,3,2,3,1>4[6:1],,,6,7,8,
{12}7<4[12:1],,1,2,3,4,
{12}5<8[6:1],,,2,3,4,5>2[6:1],,,7,6,5,4<7[6:1],,,1,2,3,4,5,6,7,
{24}8,8,1,1,
{24}7h[24:3],,,1,,8,2,2,1,1,3h[24:2],,5h[24:3],,,2,,8,5,5,7,7,4h[24:2],,
{24}1h[24:3],,,3,,8,3,3,7,7,4,,3h[24:3],,,6,,2,5,5,3,3,4,,
{24}2h[24:3],,,8,,1,7,7,8,8,6h[24:2],,4h[24:3],,,7,,1,4,4,2,2,5h[24:2],,
{24}8h[24:3],,,6,,1,6,6,2,2,5,,6h[24:3],,,3,,7,4,4,6,6,5,,
{24}1/3h[24:3],,,5,,4,6,6,5,5,7h[24:2],,1h[24:3],,,6,,4,1,1,3,3,8h[24:2],,
{24}5h[24:3],,,7,,4,7,7,3,3,8,,7h[24:3],,,2,,6,1-5[24:18],1,8,8,2,,
{1}1b,
(190)
{8}45,,36,,27,,1-5[8:1]/8-4[8:1],,
{8}1b/8b,,3h[8:14],4,,,4,,,,4,,,,4,,6h[8:11],,5,,,,5,,5,5>1[8:1],,5,
{16}6,5,4,3,2,1,8b/4b,,,,2,1,
{8}2-6[8:1],2,8-4[8:1],8,5-1[8:1],5,6-2[8:1],6,3-7[8:1],3,1-5[8:1],1,
{8}4-8[8:1],4,7-3[8:1],7,1-5[8:1],1,4-8[8:1],4,2-6[8:1],2,1-5[8:1],1,8-4[8:1],8,
{8}7,7w3[8:1],,7b,,{16}1,2,
{8}37,8,47,2,34,5,68,2,38,7,46,3,25,7,
{8}63,4,83,6,78,1,24,6,74,3,82,6,71,3,4-1[8:1]/5-8[8:1],6,45,,
{8}13,2,17,8,16,2,3h[8:1]/5,6,7h[8:1]/5,4,2h[8:1]/5,4,5h[8:1]/1,2,
{8}36,36,47,47,8<5[8:1]/5>2[8:1],85,,,
{8}1h[8:1],8h[8:1],7h[8:1],6h[8:1],5h[8:1],4h[8:1],3,,
{8}4/7h[8:4],5,6,4,2h[4:1],4,5,3/1<3[4:1],,,,,8h[8:1],6h[8:1],4,4,
{8}3h[8:2]/5,5,5,4/6h[8:2],4,4,75,7,6h[8:1]/1,2,3h[8:1]/8,7,5/6h[8:1],5,4/3h[8:1],4,
{16}25,,3,4,3,,74,,6,5,6,,15,,3,4,3,,25,,3,4,3,,47,,8,,15,,2,,
{16}16,,7,8,7,,38,,2,1,2,,{8}8-4[8:1],1-5[8:1],
{8}8b-6[8:1],1b-3[8:1],8b-4[8:1],1b-5[8:1],8b,1b,,,
{8}6h[4:1]/4,3,3,2h[4:1]/5,6,5,1<4[2:1]/4,,3,3,2,2,1,1,84,,
{8}1-5[8:1],8,1,7-4[8:1],8,7,8>5[2:1],,6,6,7,7,8,8,15,,
{8}2>4[8:1],1,2,8<6[8:1],1,8,2,3,5h[8:2]/6,,4,2h[8:2]/3,,3,1,8,
{8}2/6h[8:1],5h[8:1],4h[8:1],3h[8:1],6,5,4w8[8:1],3,,,26,7,
{16}8/1-5[8:1],2,3,4,,,,,
{8}2h[8:2]/4,5,6,7h[8:2]/5,4,3,1/2-6[8:1],,8-4[8:1]/2,8,5-1[8:1],5,4-8[8:1],4,2,,
{8}1h[4:1],3,8h[4:1],6,4h[4:1],2,7-3[8:1],,1-5[8:1]/7,1,1/4-8[8:1],4,4/6-2[8:1],6,7,,
{16}61,,8,,7,,38,,1,,2,,61,,8,,7,,61,,8,,7,,83,,4,,51,,6,,
{16}25,,4,,3,,74,,5,,6,,15,,4,,3,,25,,4,,3,,15,,15,,26,,26,,
{4}3b>6[8:10]/7b,,,,3>6[4:1],,,{8},18,6b/3bp6[8:10],,,,,,,,1,,,2,,,3,,
{4}4p5[8:10]/5,,,,,,4z8[8:1],,
{8}26,,18,18,28,28,38,38,48,37,26,15,26,37,48,{16}8,7,
{16}16,,3,4,3,,83,,6,5,6,,17,,3,4,2,5,3,4,1,6,3,4,8b,,,,78,,
{8}2b/5b>2[8:1],,8,7,6,5p8[8:1],4>1[8:1],5,4,7,6,51,8,4<7[8:1],8v3[8:1],4,8,
{8}4,5,26,7,8-4[8:1]/2,2,1,1>4[8:1]*-4[8:1],,1<6[8:1]*-6[8:1],,1-5[8:1],,1<3[8:3],,
{8}3,3q1[4:1],,2,,2,3,54,6,5>2[8:1],6<1[8:1],5,6,,3,24,1,
{8}47,8>3[8:1],1,8<6[8:1]/4-8[8:1],,8>6[4:1]/4,,6,7,8,1,2,{16}1,8,7,6,8,7,6,5,
{8}4b/8b,6,13,2,47,6,15,3,16,5,13,4,78,2,3/4-1[8:1],6,
{8}4/7-3[8:1],8,7/2-5[8:1],1,2/8>3[8:1],7,4,,
{8}37,37,48,48,51,51,48,48,2/6<2[4:1],,2p5[4:1],3,4,3,2,1,
{8}8-4[8:1],8,1-5[8:1],1,2-6[8:1],2,4,,,56,7,8,34,2,56,7,
{8}2-5[8:1],7-4[8:1],2,7,1-5[8:1],8>6[4:1],1,8b,,,
{8}3<7[4:1]/7,2,7>2[4:1],,2qq3[8:2],,3<6[8:2],,,7<8[8:3],,,8,,
{8}4h[4:1],7,8<6[8:1],1,2<8[8:1],3,4,5,6h[8:2],7>3[16:3],,5h[8:2],,,1,37,,,
{8}6>2[4:1]/2,7,2<7[4:1],,7pp6[8:2],,6>3[8:2],,,2>1[8:3],,,1-5[8:1],,
{8}2,3>8[8:1],4,5,6>3[8:1],7,8,,14,3,58,6,{16}1,2,3,4,{32}8,1,2,3,4,5,6,7,
{8}4b/8b,,
{16}7,7,8,,8-4[8:1]/2,,1,,78,,6,,
{16}35,,6,,1,1,8,,1-5[8:1]/2,,8,,17,,6,,43,,5,,
{16}2,2,1,,1-5[8:1]/7,,8,,21,,3,,
{16}64,,3,,8,8,1,,8-4[8:1]/7,,1,,82,,3,,57,,4,,
{16}8-3[8:1],8,1,,6/8-4[8:1],,7,,28,,1,,
{16}35,,6,,1-6[8:1],1,8,,3/1-5[8:1],,2,,71,,8,,
{8}73,4-1[8:1],5,6,7-4[8:1],8,1,2,{16}1,8,7,6,5,4,3,2,{32}1,2,3,4,5,6,7,8,{4}15,
{16}2,4,3,,3,,5,4,6,5,7,,7,5,6,,6,,4,5,3,4,2,,8-4[8:1],1,8,1,8,,,,
{8}2b/6b,8,1-6[8:1],8,1,7,5-2[8:1],,5-1[8:1],7,5,6,2>6[4:1],,6<2[4:1],,,
{8}4,5,5,63,74,8-5[8:1]/5,,8>3[8:1]*-3[8:1],,8<4[4:1],,4q1[4:1],,,,
{8},4,38,1,24,3-8[8:1],5,3/6-1[8:1],,6/5-2[8:1],,5/7<3[4:1],,2,1<6[8:1],1,
{8}1b/5,,4,4>1[8:1]*<7[8:1],,4w8[8:1],,,,,2/6,3,{16}4/1>4[8:1],8,7,6,{8}15,,
{8}56,7,1<6[8:1]/8,3,2>5[8:1]/1,,12,,
{8}8>3[16:3],2>5[16:3],4<8[16:5],,1h[4:1],,,,13,
{8}8,57,6,56,45,34,,24,45,57,,1-4[8:1]/8-5[8:1],,
{8},,36,7,8,1,83,2-7[8:1],1,2>5[8:1],,8/2-6[8:1],,2/6,,5,8-4[8:1],1-5[8:1],
{8}8-6[8:1],1-3[8:1],8-4[8:1],1-5[8:1],8,1<3[8:3],,18,,,,,
{16}2b/4b,,,1b/8b,,,5b/7b,,
(175)
{8}5b/4h[8:4],,,,
(110)
{48}3b,2,1,8,7,6,
{16}3,5,2,4,
(73.33333)
{12}1-3[24:1],1-4[24:1],1-5[24:1],,,,8-6[24:1],8-5[24:1],8-4[24:1],,,,
{12}2-7[24:1],2-6[24:1],2-5[24:1],,,,7-2[24:1],7-3[24:1],7-4[24:1],,,,
{12}1V38[24:1],1V37[24:1],1V36[24:1],,,,8V61[24:1],8V62[24:1],8V63[24:1],,,,
{12}1<6[24:1],1<4[24:1],1<2[24:1],,,,1w5[12:1],28,37,1b,,,
{12}2/7q3[12:1],3,4,5>1[12:1],6,7,8p4[12:1],7,6,3>8[12:1],1,2,
{12}7qq4[4:1],5,,4q1[8:1],1,2,3h[12:2],,,13,24,35,
{12}4qq8[6:1]/6,5,6,7<3[12:1]/4,,6,1pp5[6:1],8,5,1/6<3[6:1],,7,5h[12:3]/6,,,
{12}4-6[24:1],4-2[24:1],4-7[16:1],4-1[16:1],,,,{24}8,7,6,5,
{12}4b-7[12:1]/3b,3,3,4/2-5[12:1],1,1,8-3[12:1]/2,7,6,8/5-1[12:1],5,5,
{12}4/5b>2[12:1]*<8[12:1],,,5bw1[12:1],,,5b,,48,37,26,15,
{12}8>5[6:1]/4,,5qq3[12:1],6,7,8,
{12}1-6[12:1],1,1,1>4[12:1],1,1,1-5[12:1],1,1,1,1,1,
{24}1/8h,,,,2/7h,,,,3/6h,,,,
{12}4b/5bp7[12:8],,,,,,2-8[12:1],,,,,,
{12}2b-5[6:1]/6bV82[12:8],,,,,,3-7[12:1],,,,,,
{12}5b-7[12:4]/8b-3[6:1],,,,,,1,,,4-7[24:1]/8-3[24:1],26,15,
{12}4b-1[24:1]/8b-5[24:1],,48,4b-7[24:1]/8b-3[24:1],,15,
{12}4b/8b,,
{12}8b-5[24:1]/4b-1[24:1],1b-4[24:1]/5b-8[24:1],
{1}8b/4b,E
