&title=ウサテイ - 20XX -
&artist=ビートまりお/あまね/COOL&CREATE
&first=0.020
&wholebpm=190.000
&lv_5=14
&des_5=我是不是走错片场了
&inote_5=(190)
{1},{4},,
{8},,,{16}A2,D2,
{16}A1,,E3,B3,B4,,C,,A4,,E5,B5,E6,,A6,,
{8}1x,8,1,6,2,1,2,7,
{8}3,8,3,6,2-5[8:1]/5-7[8:1],3,,,
{8}8x,1,8,3,7,8,7,2,
{8}6,1,7,35,4xpp6[8:1]*v1[8:1],,,,
{8}3x,4,3,6,2,5,2,7,
{8}1,6,1,8,3x-8[8:1]/4x-7[8:1],25,,,
{8}6x,5,6,3,7,4,7,2,
{8}8,1,6pp6[4:1]/3qq3[4:1],45,,,,,
{8}5xh[8:1],4,5h[8:1],2,6h[8:1],3,6h[8:1],1,
{8}7h[8:1],2,7h[8:1],4,8v6[8:1]*p3[8:1],2,,,
{8}4xh[8:1],5,4h[8:1],7,3h[8:1],6,3h[8:1],8,
{8}2h[8:1],7,1h[8:1],6,7xv4[8:1]/3xp7[8:1],,,,
{8}5xh[8:1],4,5h[8:1],2,6h[8:1],3,6h[8:1],1,
{8}7h[8:1],2,7h[8:1],4,5<6-8[8:1]/3v8[8:1],2,,,
{8}1xh[8:1],8,1h[8:1],6,2h[8:1],7,2h[8:1],5,
{8}36,4,5v3[8:1]*pp7[8:1],6,5b,,,,
{8}E6,,E6,,E4,,E4,,
{8}B5,,A3,,A6,E4,{16}A5,B5,E6,B6,
{8}E4,,E4,,B5,,B5,,
{8}E4,A6,E4,,{16}A4,B4,E4,B3,A5,B5,E6,B6,
{8}A3,,E6,,E4,,E6,,
{32}E6h[2:1],,,,B5h[32:12],,,,B4h[32:8],,,,,,,,{16}E4,,,,,,,,
{16}B5h[8:3],,,,,,B4,,,,,,E4,,,,
{8}A6,,E4,,{16}E6h[8:3],,B5h[4:1],,B4h[8:1],,E4{8},
{8}2h[8:3],1,8,7,6h[8:3],5,4,3,
{8}2,1,8>2b[8:1]/7q5[4:1],6,,,,,
{8}5h[8:3],4,3,2,1h[8:3],8,7,6,
{8}5,6,8-3pp4[8:3]/7-2b[8:1],1,,,,,
{8}3h[8:3],4,5,6,7xh[8:1],8,3xh[8:1],4,
{8}2,1,6-2<1-7b[8:3]/8-3pp4[8:3],5,,,,,
{8}6h[8:3],7,8,1,2h[8:3],3,4,5,
{8}6pp5[4:1],6,2,3,4qq5[4:1],4,5,6,
{8}6,4,5,4,27,5,4,8,
{8}5xh[384:1],,7-2>4b[4:1],E1/D1,,,,,
{8}63,5,4,5,27,4,5,1,
{8}7-2[8:1],8,1q5[8:1],1,{32}E8,B7,B6,,{8},,,
{8}63,4,5,3,27,6,4,8,
{16}5x,,4x,3x,1x-7b[8:1]/2x-6v8-4[2:1],8x,{8},A1/B1/E1/D1,,,,
{8}5,5,6,6,73,3,2,2,
{8}71,7,83,8,46,4,38,3,
{8}1b/2bpp1[4:1],{16},,{8}8,6,,87,16,25,
{8}3qq1[8:1],3,5pp7[8:1],5,2,3,46,8,
{8}3V52[4:1],,5,6,,71,2,38,
{8}1b-7[8:1],,2b-6[8:1],,3b-5[8:1],,8b,,
{8}7pp6[4:1]/8,,1,3,,34,52,61,
{8}7<5-1[4:1],7,1>3-7[4:1],1,4,4,3x,2x,
{8}6V47[4:1],,4,3,,28,7,63,
{8}4b-6[8:1],,3b-7[8:1],,2b-8[8:1],,5b,,
{8}6/4qq5[4:1],,5,7,,64,53,42,
{8}1q7[4:1],8,7q1[4:1],6,E6,E5,E4,,
{8}5/3<5-2[4:1],,8,7,,61,2,37,
{8}8b-2[8:1],,7b-3[8:1],,6b-4[8:1],,1b,,
{8}3/5pp4[4:1],,4,2,,35,46,57,
{8}8<3[4:1],8,3q8[4:1],3,8,1,2,3,
{8}4/6>4-7[4:1],,1,2,,38,2,17,
{8}5b-3[8:1],,6b-2[8:1],,7b-1[8:1],,4b,,
{16}3x,4,3,4,3,4,3,4,3,4,3,4,3,4,3,4,
{16}2x,8,2,8,2,8,2,8,3x,7,3,7,3,7,3,7,
{16}5x,6,5,6,5,6,5,6,4x,5,4,5,3x,7,2x,1,
{16}2,1,2,1,2,1,2,1,2,1,2,1,2,1,2,1,
{16}2,,34,,45,,56,,7x,1,7,1,7,1,7,1,
{16}5x,2,5,2,5,2,5,2,6x,1,6,1,6,1,6,1,
{16}5x,4,5,4,5,4,5,4,7x,8,7,8,6x,2,4x,3,
{16}4,3,4,3,4,3,4,3,4,,21,,65,,78,,
{16}3x,4,3,4,3,4,3,4,3,4,3,4,3,4,3,4,
{16}1x,7,1,7,1,7,1,7,2x,6,2,6,2,6,2,6,
{16}3x,4,3,4,3,4,3,4,2x,8,2,8,1x,7,8x,6,
{16}8,6,8,6,8,6,8,6,8,6,8,6,8,6,8,6,
{16}8,,14,,52,,63,,7x,5,7,5,7,5,7,5,
{16}8x,1,8,1,8,1,8,1,7x,2,7,2,8x,4,7x,3,
{16}5x,2,5,2,5,2,5,2,5,,46,,81,,53,,
{16}2x,4,2,4,2,4,1x,7,1,7,1,7,4x,6,4,6<2V86V42[2:3],
{8}5b>1V75V31b[2:3],,,,,,,,
{8},,,,,,,,
{8}87,6,5,4,3h[4:1],,,7,
{8}6,5,4,3,26,3,47,6,
{8}53,4,5,6,7h[4:1],,,3,
{8}7,6,5,4,5,4,3h[8:1],,
{8}2/8<5[8:1],,,,1>4[8:1]/6,,,,
{8}5-7[8:1],,3-1[8:1],,4-8[8:1],,2,,
{8}1v2-4[4:1],,,,7-5[8:1],,,2,
{8}3>8[8:1],4,5,6,7<4[8:1],8,1,,
{8}2v3-5[4:1],,,,8-6[8:1],,,3,
{8}4-1[8:1],4,7,6,5-8[8:1],5,4,3,
{8}2-4v1[4:1],,,,7-5[8:1],,,8,
{8}1<6[8:1],2,3,4,5>2[8:1],6,7,,
{8}8v5-7[4:1],,,,4-2[8:1],,,,
{8}1-5[8:1]/8-4[8:1],,8b/1b,,2>4[8:1]/7<5[8:1],,2b/7b,,
{8}1x/8x,2,18,7,18,2,18,7h[1:1],
{8}E4/A3,E2/A2,E4/A3,E2/A2,E4/A3,E2/A2,E4/A3,E2/A2,
{8}5-7[8:1]/3xh[8:1],,1h[8:1],,5-7[8:1]/3xh[8:1],,1h[1:1],,
{32}E5,B5,B6,E7,,,,,E5,B5,B6,E7,,,,,E5,B5,B6,E7,,,,,E5,B5,B6,E7,,,,,
{8}8x/1x,7,81,2,81,7,81,2h[1:1],
{8}E6/A6,E8/A7,E6/A6,E8/A7,E6/A6,E8/A7,E6/A6,E8/A7,
{8}4-2[8:1]/6xh[8:1],,8h[8:1],,4-2[8:1]/6xh[8:1],,8h[1:1],,
{32}E5,B4,B3,E3,,,,,E5,B4,B3,E3,,,,,E5,B4,B3,E3,,,,,E5,B4,B3,E3,,,,,
{8}1x/7x,2,71,6,5-7[8:1]/3,2,1h[1:1],,
{8}E6/A6,A7/E8,E6/A6,A7/E8,E6/A6,A7/E8,{32}E5,B5,B6,E7,{8},
{8}8xh[8:1]/3-1[8:1],,6h[8:1],,8h[8:1]/3,,46,7h[1:1],
{32}E5,B4,B3,E3,{8},{32}E5,B4,B3,E3,{8},{32}E5,B4,B3,E3,{8},E2/A2,E4/A3,
{8}5x-7[8:1]/1x,1x,35,,4x>1[8:1]/6x,6x,8h[1:1]/4,,
{8}E2/A2,E4/A3,{32}E5,B4,B3,E3,{8},{8}E2/A2,E4/A3,{32}E5,B4,B3,E3,{8},
{24}1x/7x,6x,5x,{8},43,2,5/3<2[4:1],6,7,,
{8}5,5,64,64,{16}3,7,3,7,2,8,2,8,
{8}2h[8:1],,2h[8:1]/4h[8:1],,3h[8:1]/4h[8:1],,3h[8:1]/4h[8:1],,
{8}2h[8:1]/8h[8:1],,2h[8:1]/8h[8:1],,3h[8:1]/5h[8:1],,3h[8:1]/5h[8:1],,
{8}2h[8:1]/7h[8:1],,2h[8:1]/7h[8:1],,3h[8:1],7b,2b/6b,1bh[4:1]/5b,
{8},6b-2b[8:1],3b,2b<4b[4:1],,3b,3b,,
{8}2h[8:1],,2h[8:1]/4h[8:1],,3h[8:1]/4h[8:1],,3h[8:1]/4h[8:1],,
{8}2h[8:1]/8h[8:1],,2h[8:1]/8h[8:1],,3h[8:1]/5h[8:1],,3h[8:1]/5h[8:1],,
{8}2h[8:3]/4,8,7,6,5h[8:3],4,3,2,
{8}6b-1b[8:1]/1b,,6b/3b,,2b-5b[8:1]/8b,,2b/6b,,
{8}7h[8:1],,7h[8:1]/5h[8:1],,6h[8:1]/5h[8:1],,6h[8:1]/5h[8:1],,
{8}7h[8:1]/1h[8:1],,7h[8:1]/1h[8:1],,6h[8:1]/4h[8:1],,6h[8:1]/4h[8:1],,
{8}7h[8:3],3,4,3,2h[8:3],6,5,6,
{8}7h[8:3],2,3,4,5,{16}8,7,{8}6h[8:1],4,
{8}35,53,82,,71,6,52,3,
{8}4,5,6h[4:1],,5x-8[8:1],,5x/3x,,
{8}1x-7b[8:1],,,,2x-6b[8:1]*v5b[8:1],,,,
{8}74,74,63,63,{24}4x,5x,4x,5x,3x,6x,3x,6x,2x,7x,2x,7x,
{8}1xb-5[8:1],1,7-4[8:1],7,2-5[8:1],2,8-4[8:1],8,
{8}2-6[8:1],2,7,7,5<1[8:1]*>1[8:1],64,5b,,
{8}8x-4[8:1],8,2-5[8:1],2,7-4[8:1],7,3,2,
{8}1x/5x,26,73,84,1V75[8:1]/5V31[8:1],,15,,
{8}2x-5[8:1],2,8-4[8:1],8,1-5[8:1],1,7-4[8:1],7,
{8}2-5[8:1],2,8,7,6<7-1[8:1]/4>3-1[8:1],5,6b/4b,,
{8}8x-4[8:1],8,2-5[8:1],2,7-4[8:1],7,1>2V46<7v1b[4:3],1,
{8}C,,,,,,,,
{8}8-4[8:1]/1b,7,1-5[8:1]/8b,2,8-4[8:1]/1b,7,1-5[8:1]/8b,2,
{8}8-4[8:1]/1b,7,1/8b,2,3w7[8:1],42,3b,,
{8}1b-5[8:1],2,8-4[8:1]/1b,7,1-5[8:1]/8b,2,8/1b,7,
{8}64,73,82,64,5pp5[4:1],,35,,
{8}2b-6[8:1],3,2b/1-5[8:1],8,2-6[8:1]/1b,3,2b/1-5[8:1],8,
{8}1b/2-6[8:1],3,2b/1,8,7w3b[8:1],86,7b,,
{16}7,8,7,8,{24}7,6,5,4,,,{16}2,1,2,1,{24}2,3,4,5,,,
{24}8x,1x,8x,1x,8x,1x,{32}7,6,5,4,3,2,1,8,7b-2b[16:1]/3b-6b[16:1],,,,,,,,Cf/3b/7b,,,,,,,,
