&title=GloriosA
&artist=KARUT
&first=0.9
&des=SiroGin
&clock_count=4
&lv_5=14
&inote_5=(175){4},,,,{1}8xV24V68[1:1],
1V35V71[1:1],
2V46V82[1:1],
3V57V13[1:1],
4xV68V24[1:1],
5V71V35[1:1],
6V82V46[4:3],
{4}7-3[8:1],{8}2h[16:1],2h[16:1],{4}2bz6[8:1]/3bxs7[8:1],{24}E3,C,{6}E7,
{8}4x/5x,3,2/1,8,{16}7,5,{8}7,{16}3,4,{8}3,
5/6,7,8/1,2,{16}4,5,{8}3,{16}6,6,{8}5,
4/3,2,1/8,7,{16}6,5,{8}6,{16}2,4,{8}3,
5/6,{16}7,8,{8}7,4/3,{16}2>4[8:1],1,{8}2,{24}8b,7x,{6}6x,
{8}3x/5x,{16}2,1,{8}2,3/6,{16}2,8,{8}2,3/7,2,
4/6,{16}7,8,{8}7,6/3,{16}7,1,{8}7,{16}2,6,3,5,
{1}4bs8[8:5]*z8[8:5],
{12}E2,E3,E4,E8,E7,E6,{16}A1,A2,A3,A4,A8,A7,A6,A5,
{8}4xw8[4:1],{2},{16}2/6,3/5,{4}4xw8b[8:1],
B4f/E4/B3/E5/B5,{16}2,1,2,1,{8}2V46[8:1],5v3[8:1],{4},8bxh[4:1],
{16}3,8,1,8,5,8,1,8,{4}4-1[8:1]*-7[8:1],
4b,{16}8,8,8,8,{8}1-4[8:1],5-8[8:1],{24}E2,B2,B3,E6,B6,B7,
{4}1bxh[4:1],{16}4,5,6,7,2,3,8,7,3,4,7,6,
{4}5b/Cf,{16}1,8,1,8,5,8,5,8,2,8,2,8,
6,8,6,8,3,8,3,8,7,8,7,8,{4}4-2[8:1]*-6[8:1],
4b,{8}8,1b/7bV53[8:1],,2,{4}2bv5[8:1],
{16}8bh[8:1],{8},{16}7bh[8:1]/4bh[8:1],{8},6bh[16:1]/3bh[16:1],{2}Cf/5bxp4[8:1],
{32}A1,D2,A2,D3,A3,D4,A4,D5,A5,D6,A6,D7,A7,D8,A8,D1,{8}1xV35[8:1],4xv2[8:1],{4}1x,
{8},{24}E8,B8,B1,E4,B4,B5,D7,E7,C,{8}1s5[8:1],4x-8[8:1],{4},{32}A1,
D1,A8,D8,A7,D7,A6,D6,A5,D5,A4,D4,A3,D3,A2,D2,{4}A1/C,{8}7-2[8:1],5,
7,3-6[8:1],1,3,{2}8bs4[8:1]*z4[8:1],
{32}1x,D2,2x,D3,3x,D4,4x,D5,5x,D6,6x,D7,7x,D8,8x,D1,{4}1xs5[8:1],1b/8b,
{16}7h[8:1]/B5,{8},{16}3h[8:1]/B1,{8},8h[16:1]/C,{4}1xw5[8:1],{24}B1,C,{6}B5,
{4}3b-7[8:1],{8}4,5b-1[8:1],,6,{4}7bh[4:1],
{16}8,1,2,3,8,7,6,5,3,4,8,7,{4}1b/6b,
{8}4/5,{16}2,1,{8}3-8[8:1],5,3,7-3[8:1],5-1[8:1],7,
5-2[8:1],6,5,7,3v8[8:1],8V24[8:1],{4},{8}5,
{16}7,8,{8}6-1[8:1],2,6,3-8[8:1],7-5[8:1],3,
7-3[8:1],1,7,1,2w6[8:1],1x/3x,{4},{8}3/4,
{16}7,8,{8}6,{16}3,4,{8}2v4[8:1],5V31[8:1],{4},{8}8,
{16}6,5,{8}7,{16}2,1,{8}3v8[8:1],7q4[8:1],{4},{8}2,
{16}6,5,{8}7,1/8,2,2-6[8:1],3/4,2,
7h[8:1],{16}8,6,1,5,2,4,{4}3b/Cf,{24}E2,B1,B8,E6,B5,B4,
{1}2qq5[4:3],
6qq1[4:3],
3qq6[4:3],
7<1[4:3],
{8}6h[8:3],{4},{8}C,,3,3,4,
4<5-8[8:5],{4},{8}E3,{4},3h[4:1],
{8}7,6,5,4,6/3,5,4,3,
{4}2h[4:1],6h[4:1],3h[4:1],{32}8,7,6,5,4,3,2,1,
{4}8b/Cf,{8}5/2,{16}3,4,{8}3,6-3[8:1],2h[16:1],2h[16:1],
{4}1h[8:1],{8}4/7,{16}6,5,{8}6,{16}3,4,{8}2-5[8:1],1/8,
{4}2,{8}4/7,{16}6,5,6,5,{8}6,{16}3,4,2,4,
{8}1,{16}6,5,{8}7,{16}2,1,{8}3v1[8:1],8V25[8:1],{4},{8}7bh[8:1],
{16}4,6,{8}4,3/7,1h[16:1],1h[16:1],2h[16:1]/8h[16:1],3h[16:1]/7h[16:1],
4/6,{16}2,8,{8}2,3/7,5h[16:1],5h[16:1],4h[16:1]/6h[16:1],3h[16:1]/7h[16:1],
2/8,{16}3,4,{8}3,7/1,{16}6,5,{8}6,2/8,{16}3,4,
2,1,3,8,4,7,5,6,4,3,2,1,7/8,6,5,4,
{4}3bxh[4:1],{8}5x,4x,3/C,6,5,4,
3/6,5,4,3,6/C,5,4,4,
3b/6b,5,4,3,6/C,6,5,4,
6/3,5,4,3,5/4,4/5,{32}E4,B3,B2,E2,E6,B6,B7,E8,
{8}2x/8x,3,4/5,6,7/8,{16}2,1,{8}3,{16}6,6,
{8}5,7/8,4,2/1,3/7,{16}2,6,1,5,8,4,
{32}7bxq1[2:1]/3bxq5b[2:1],8x/4x,1x/5x,2x/6x,{8}3x/7x,{4},,,{16}3,
4,5,6,2,3,4,5,1,2,5,6,{4}3b/7b,
{16}2v5[8:1],1,,1,{8}2,{16}6,6,4,5,3,4,2,1,2,1,
3>8[8:1],4,,4,{8}3,{16}7,7,1,8,3,4,2,1,5,6,
8-3[8:1],7,,7,{8}8,{16}6,6,4-1[8:1],5,,5,{8}4,{16}7,7,
2,1,5,6,1,8,4,5,8,7,1,6,2,5,3,4,
2v5[8:1],1,,1,{8}2,{16}6,6,8-3[8:1],7,,7,{8}8,{16}4,4,
2-5[8:1],1,,1,{8}2,{16}6,6,{8}8h[8:1],{16}7,1h[8:1],,6,{8}2h[8:1],
5,{16}7v4[8:1],8,6,8,{8}7,3,{16}2v5[8:1],1,3,1,{8}2,
6h[8:1],{32}8,1,2,3,{8}7h[8:1],{32}1,2,3,4,{16}E8,B7,B6,E6,B5,B4,{8}E4,
{16}2>5[8:1],1,,1,{8}2,{32}8,7,{16}6,4,5,2,1,3,4,8,7,
5>2[8:1],6,,6,{8}5,{32}8,7,{16}6,1,5,4,5,8,4,3,4,
2-5[8:1],1,,1,{8}2,{16}6,6,8-3[8:1],7,,7,{8}8,{16}4,4,
2,1,5,6,1,8,4,5,8,7,1,6,2,5,3,4,
{8}2b/B3f,{16}7,8,{8}7,6b/1b,{16}3,4,{8}3,{16}2,1,2,1,
{8}3b/B1f,{16}6,5,{8}6,7b/4b,{16}2,1,{8}2,{16}7,8,7,8,
6b,5,7,4,8,3,4b,3,5,2,6,1,8b,1,7,2,
{32}6b,5,4,3,2,1,8,7,{12}6/2,7/3,8/4,{16}1bx-6[16:1]/5bx-2[16:1],{8},{16}1bx/5bx,{8},{32}1bx/5bx,2x/6x,3x/7x,4x/8x,
{1}A5f/1b-4V25[4:7]*-6V85[4:7],
