&title=OblivioN
&artist=ESTi
&first=0.026
&des=写完了才发现有人写过了
&clock_count=4
&lv_5=13
&des_5=
&inote_5=(141){1},
{4}1s5[2:1],,,8<5[4:1],
{4}8pp3[8:5],,,,
{4}5V74[8:3],,2V83[8:3],,
{4}6pp3[4:3],,,,
{4}2-5[4:1],,1>4[4:1],,
{4}7-4[4:1],,8<5[4:1],,
{4}1pp4[4:3]*-6[4:1],,,8>6[2:1],
{4},,3-7[8:1],,
{4}5b-1[4:1],,4-2[8:1],,
{4}5-1[4:1],1>4[4:1],4<7[4:1],7-2[4:1],
{4},3-6[4:1],,7-3[4:1],
{4}3<6[4:1],6<1[4:1],1-4[4:1],,
{4}3-5[8:1]*-1[8:1],,6-8[8:1],,
{4}3-5[8:1]*-1[8:1],,6-8[8:1],,
{4}2-4[8:1]*-7[8:1],,7-5[8:1]*-2[8:1],,
{4}1-4[8:1]*-6[8:1],1w5[8:1],1-3[8:1]*-7[8:1],,
{4}2-4[8:1],5-2[8:1],1-5[8:1],,
{4}7-5[8:1],4-7[8:1],8-4[8:1],,
{4}2-4[8:1],5V31[6:1],1-5[8:1],,
{4}7-5[8:1],4V68[6:1],8-4[8:1],,
{4}1>4[8:1],5p1[8:1],8p4[8:1],,
{4}8<5[8:1],4q8[8:1],1q5[8:1],,
{4}1>4[8:1],5p8[8:1],7v6[8:1],,
{4}8<5[8:1],4q1[8:1],2v3[8:1],,
{4}1b-5[4:2],,,,
{4}2-4[8:1],,8-2[8:1],,
{16}6-1[8:1],,,1-6[8:1],,,,,8-4[8:1],,,,,,,,
{16}1-5[8:1],,,5-3[8:1],,,,,1-5[8:1],,,5-7[8:1],,,,,
{16}1-5[8:1],,,5-3[8:1],,,,,1-5[8:1],,,5-7[8:1],,,,,
{4}2-8[8:1],,4-2[8:1],,
{16}5-2[8:1],,,2-5[8:1],,,,,3-7[8:1],,,,,,,,
{16}8-4[8:1],,,4-6[8:1],,,,,8-4[8:1],,,4-2[8:1],,,,,
{16}8-4[8:1],,,4-6[8:1],,,,,8-4[8:1],,,4-2[8:1],,,,,
{4}7-5[8:1],,1-7[8:1],,
{16}3-1[8:1],,,7-3[8:1],,,,,5-7[8:1],,,1-5[8:1],,,,,
{4}8q3[4:2],,,4-1[8:1],
{4}4qq7[2:1],,,8-4[8:1],
{8}5>2[8:1],6<1[8:1],4qq8[8:3],,,,,,
{8}1<6[8:1],2>5[8:1],8qq4[8:3],,,,2-6[8:1],,
{8}2<4[2:1],,,,,,1-5[8:1],,
{4}1b<2[16:10]*pp2[8:6],,,,
{4}1-4[8:1],7-4[8:1],2-6[8:1],7-2[8:1],
{4}3-6[8:1],8-4[8:1],5-1[8:1],6pp5[4:1],
{4}5p3[4:1],3>5[4:1],5p3[4:1],3<7[4:1],
{4}1>3[8:1],,1>4[8:1]*<6[8:1],,
{4}7qq8[4:1],8q2[4:1],2>8[4:1],8q2[4:1],
{4}2<6[4:1],,4>1[8:1],4<7[16:5]*s8[16:5],,
{4},2-5[8:1],{8}2<8[8:1],8<6[8:1],
{4}6>4[8:1],8V25[4:1],5V38[4:1],,
{4}2-6[8:1],8-5[8:1],5-8[8:1],3qq4[4:1],
{4}4q6[4:1],6<4[4:1],4q6[4:1],6>2[4:1],
{4}8<6[8:1],,8<5[8:1]*>3[8:1],,
{4}2pp1[4:1],1p7[4:1],7<1[4:1],1p7[4:1],
{4}7>3[4:1],5<7[8:1],,5<8[8:1]*>2[8:1],
{4},5<1[6:1],1<5[6:1],,
{4}2-7[8:1],4-1[8:1],6z2[16:3],8qq7[1:1]*>7[8:7],
{4}8b,,,,
{8}1>4[16:3],,,7>2[16:3],,,5-1[16:3],,
{16}8<4[4:1],7<3[4:1],6>2[4:1],5>1[4:1],,,,,1w5[8:1],,,,,,,,
{8}8<5[16:3],,,2<7[16:3],,,4-8[16:3],,
{16}1>5[4:1],2>6[4:1],3<7[4:1],4<8[4:1],,,,,8w4[8:1],,,,,,,,
{8}3<6[16:3],,,1>4[16:3],,,7-3[16:3],,
{16}2<6[4:1],1<5[4:1],8<4[4:1],7<3[4:1],,,,,3w7[8:1],,,,,,,,
{8}6>3[16:3],,,8<5[16:3],,,2qq7[2:1],,
{4}4pp1[2:1],,,,
{4}6q2[4:3],,,,
{4}3q8[4:3],,,,
{4}5p5[4:3],,,,
{8}7b,,{16}7<5[16:1],5>3[16:1],3>1[16:1],1<7[16:1],7b,,,,
E
