&title=好きな惣菜発表ドラゴン
&artist=ンバヂ
&first=0.01
&des=发表喜欢谱面的摸
&lv_5=0
&lv_7=摸
&inote_5=(160)
,,,,
E2,E3,E4,B2f,
1>5[4:1],,1,1,
1>5[4:1],,1,
1pp4[4:3],,,,,
1>5[4:1],,1,1,
1>5[4:1],,1,1,
1>5[4:1],,1,
1pp5[4:3],,,,,8,1,1,,
{1},,,,,,,,,,,,,,
{16}5,,5,4,3,,,,2h[8:1]/4h[8:1],,,,2h[8:1]/4h[8:1],,,,
5,,5,4,3,,,,2h[8:1]/4h[8:1],,,,2h[8:1]/4h[8:1],,,,
5,,5,4,3,,,,2h[8:1]/4h[8:1],,,,2h[8:1]/4h[8:1],,,,
5,,5,4,3,,,,3h[8:1]/4h[8:1],,,,3h[8:1]/4h[8:1],,,,
5,,5,4,3,,,,2h[8:1]/4h[8:1],,,,2h[8:1]/4h[8:1],,,,
5,,5,4,3,,,,2h[8:1]/4h[8:1],,,,2h[8:1]/4h[8:1],,,,
5,,5,4,3,,,,2h[8:1]/4h[8:1],,,,2h[8:1]/4h[8:1],,,,
3^6[8:1],,,,,,,,,,,,,,,,
{1},,,,,,,,,,,,,,,,,,
{8},3,3,4,2h[4:1],,4,5,
5h[8:1]/3h[8:1],,4h[8:1]/2h[8:1],,3h[8:1]/1h[8:1],,8>5[4:3],8h[8:9],
,,,,,,,,,,,,1/2,,2/4,2/4,
{8},3,3,4,2h[4:1],,4,5,
5h[8:1]/3h[8:1],,4h[8:1]/2h[8:1],,3h[8:1]/1h[8:1],,8-5-1-4-2[4:4],8h[8:9],
&inote_7=(160)
,,,,
E2,E3,E4,B2f,
1>5[4:1],,1,1,
1>5[4:1],,1,
1pp4[4:3],,,,,
1>5[4:1],,1,1,
1>5[4:1],,1,1,
1>5[4:1],,1,
1pp5[4:3],,,,,8,1,1,,
{8}2/4-8[8:1],3,4/6,6,7/8-4[8:1],1,2/8,2,
{16}2,,3/4,,6,5,,4/7h[16:3],,,8,,1b/6b,,,,
{8}3/2-5[8:1],2,1/2,8,6/7-4[8:1],7,7/8,1,
{8}3/2-5[8:1],2,1/2,8,6/7-4[8:1],7,7/8,1,
{8}8/1-6[8:1],2,3/1-4[8:1],2,7/1-5[8:1],8,1/3,,
{8}2/8-3[8:1],7,6/8-5[8:1],7,2/8-4[8:1],1,6/8,,
{16}6/1-5[8:1],2/7,3/8,,2x,,2x,,6/1-6[8:1],2/7,3/8,,2xV41[4:1],,2x,,
{8}1-5[8:1],5<8[8:1],8>3[8:1],4,,5,4x/6,7,
{4}
2-7[8:1]/6-3[8:1],
{24}2b/6b,,,,,,A1/E2/D2/A5f/E6/D6,,,,,,6,,6,,,1/8,,,3,4-7[8:1],,,
{24}2/5-1[8:1],,,4,,,5,,,,,,2,,2,4,,4,5,,5,7,,7,
{8}2-5[8:1],1,2/8-3[8:1],7,8/6-1[8:1],5,6/4q5[4:1]<3[4:1],,
{8},,,,,5,4/6,3/7,
{4}1-3[8:1]*v4[8:1],1-7[8:1]*v6[8:1],1-4[8:1]*>2[12:1]v4[24:1],1-6[8:1]*<8[12:1]v6[24:1],
{8}1-4[8:1]*>2[24:1]v4[12:1],,1-6[8:1]*<8[24:1]v6[12:1],,,,
{16}5,,5,4,3,,,,2h[8:1]/4h[8:1],,,,2h[8:1]/4h[8:1],,,,
5,,5,4,3,,,,2h[8:1]/4h[8:1],,,,2h[8:1]/4h[8:1],,,,
5,,5,4,3,,,,2h[8:1]/4h[8:1],,,,2h[8:1]/4h[8:1],,,,
5,,5,4,3,,,,3h[8:1]/4h[8:1],,,,3h[8:1]/4h[8:1],,,,
5,,5,4,3,,,,2h[8:1]/4h[8:1],,,,2h[8:1]/4h[8:1],,,,
5,,5,4,3,,,,2h[8:1]/4h[8:1],,,,2h[8:1]/4h[8:1],,,,
5,,5,4,3,,,,2h[8:1]/4h[8:1],,,,2h[8:1]/4h[8:1],,,,
3^6[8:1],,,,,,,,,,,,3/6,,2/7,,
{16}1/8,,7,5,,3,4,,2V48[4:1],1,3,,2/4,,6,,
{16}7-4[8:1],,1,1,7,,3,3,,6,5,,2b/8b,,,,
{16}4/3>8[8:1],,5,5,3,,7,,6-1[8:1],,5,,4/6,,3,3,
{16}8,,1/7,,2,4,,3/5,,4/6,,7,8,,1/8,,
{16}1/2,,3,4,,6,5,,7V51[4:1],8,6,,5/7,,3,,
{16}3,,2,1,2,,3,4,,7,8,,5/6<1[8:1],,4,4,
{16}6,,2,,3>8[8:1],,5,5,3,,7,,7,,1/7,,
{32}2-5[8:1]/6-1[8:1],3,4,5,6,7,8,1,2,,,,,,,,3b/8b,,,,,,,,{8}8b-3[8:1],,
{16}4,,5,5,,,4/8,,2/5,,3,4,2-7[8:1],4,3,,
{16}6-3[8:1],,5,,1-6[8:1],,2,,1/6,,5,,3-7[8:1],4,3,4,
{16}3,,1,1,,,4/8,,1/6,,7,8,6-1[8:1],8,7,,
{16}3-8[8:1],,2,,5,,4,,2/6,,,,3,4,3,4,
{8}2<7[8:1],8,4-8[8:1],5,6>3[8:1],7,1-7[8:1],2-6[8:1],
{16}1-5[8:1],,2,,1,,2,,3/7,,,,6-1[8:1],5,6,,
{16}3-6[8:1],,2,,8-4[8:1],,7,,6,,5,,2,1,2,1,
{16}3/8,,2,4,3,8,1,7,3,5,4,6,,,,,
{16}2/3,,,,6/7,,,,2h[8:1]/4h[8:1],,,4h[8:1]/5h[8:1],,,5h[8:1]/7h[8:1],,
{24},,,7/8,,,1/6,,,2/5,,,4/7,,,4/7,3/6,2/5,1/4,,,7/8,,,
{8},3,3,4,2h[4:1],,4,5,
5h[8:1]/3h[8:1],,4h[8:1]/2h[8:1],,3h[8:1]/1h[8:1],,8>5[4:3],8h[8:9],
,,,,,,,,,,,,1/2,,2/4,2/4,
{8},3,3,4,2h[4:1],,4,5,
5h[8:1]/3h[8:1],,4h[8:1]/2h[8:1],,3h[8:1]/1h[8:1],,8-5-1-4-2[4:4],8h[8:9],,,,,,,,,,,,,
{48}7-2[8:1],E7,B6,B5,E5,,3,,,,,,7,,,,,,4,,,4,,,7,E7,B6,B5,E5,,2,,,,,,1x/7x,,,,,,,,,,,,
{48}2-7[8:1],E3,B3,B4,E5,,6,,,,,,2,,,,,,5,,,5,,,2,E3,B3,B4,E5,,7,,,,,,2x/8x,,,,,,,,,,,,
{48}8-3[8:1],E8,B7,B6,E6,,4,,,,,,8,,,,,,5,,,5,,,8,E8,B7,B6,E6,,3,,,,,,2x/8x,,,,,,,,,,,,
{32}1b>5[8:1],,,,5b<1[8:1],,,,,,,,,,,,E2,E3,E4,E5,E6,E7,E8,E1,C1f,,,,
,,,,
C1h[4:1],,,,,,,,,,,,,,,,
{48}
7,E7,B6,,,,,,3,E3,B2,,,,,,8,E8,,,,,,,4,E5,B5,,,,,,8,E1,B1,,,,,,3,E4,,,,,,,
7,E7,B6,,,,,,3,E3,B2,,,,,,8,E8,,,,,,,4,E5,B5,,,,,,8,E1,B1,,,,,,3,E4,,,,,,,
2,,3x,,4x,,5x,,6x,,7x,,2,,3x,,4x,,5x,,6x,,7x,,
{24}2/8x-3[8:1],,,,,,4h[4:1],,,,,,2,1x,8x,7x,6x,5x,2,1x,8x,7x,6x,5x,
{24}8/4x-8[8:1],,,,,,5h[4:1],,,,,,8,1x,2x,3x,4x,5x,8,1x,2x,3x,4x,5x,
{8}2<7[4:1],,7<4[4:1],,4>1[4:1],,7,6,5-8[8:1],,2/5b,,
{16}7b/8b<5[8:1],,1,,2/8,,3,,2/4,,7,8,7,,1/6,,
{8}3h[4:1]/4,8x,5h[4:1],8x,3h[4:1],8x,6h[8:1],8x,
{16}1/5<8[8:1],,4,,3/5,,2,,1/3,,6,5,6,,1/8,,
{8}3h[4:1]/6,8x,5h[4:1],8x,3h[4:1],8x,4h[8:1],8x,
{16}1/6,,7,8,7,,1/6,,3/8,,2,1,2,,3/8,,
{4}5x>2b[8:1]/7x<5b[8:1],5/7,5x/1xs5b[8:1],1/8,
{16}3/7,,6,,1/5,,2,,3/8,,6,5,6p4[4:1]>5[2:1],,1,,
{8}C1f,,,,,,,,
{4}1q5[8:1],8>3[8:1],7q3[8:1],6<1[8:1],
{4}5q1[8:1],4<7[8:1],3q7[8:1],2>5[8:1],
{4}1q5[8:1],8>3[8:1],7q3[8:1],6<1[8:1],
{4}5q1[8:1],4>5[8:3],,,
