&title=Stay Alive
&artist=高桥李依
&first=0
&des=E.M.T
&lv_5=13
&inote_5=(140)
{1},,
{4}E3,E5,E4,5<3[70#4:1],
{1},
{4}E7,E5,E6,4>6[70#4:1],
{1},
{4}D3,D5,D4,6^8^2^4[70#4:1],
{1},
{4}D7,D5,D6,3s7[70#4:1],
{1},
{8}2xh[16:6],,,4,3h[16:4],,5,4h[16:4],
{8},6,5h[16:4],,7,,53,,
{8}2xh[16:6],,,4,3h[16:4],,5,4h[16:4],
{8},6,5h[16:4],,7,,53,,
{8}2xh[16:6],,,4,3h[16:4],,5,4h[16:4],
{8},6,5h[16:4],,7,,53,,
{8}2xh[16:6],,,4,3h[16:4],,5,4h[16:4],
{8},6,5h[16:4],,E7,E5,E6,E4,
{8}5xh[16:4],,4,6,2h[16:4],,3,4h[16:4],
{8},5,6h[16:4],,7,,6,4,
{8}5xh[16:4],,4,6,2h[16:4],,3,4h[16:4],
{8},5,6h[16:4],,7,,6,4,
{8}5xh[16:4],,4,6,2h[16:4],,3,4h[16:4],
{8},5,6h[16:4],,7,,6,4,
{8}5xh[16:4],,4,6,2h[16:4],,3,4h[16:4],
{8},5,6h[16:4],,E7,E5,E6,E4,
{1}8x-4[70#4:1],
{1}8x-4[70#4:1],
{1}8x-4b[70#8:3],
{4},,1bh[4:2],,
{16}8b,,,,7xpp6[70#4:1],,7,,6,,,,6xp5[70#4:1],,6,,
{16}5,,,,5xpp4[70#4:1],,5,,4,,,,4xp3[70#4:1],,4,,
{16}3,,,,1>6[70#4:1],,1,,,,,,1x,,,,
{8},,,,7-4[70#8:1],7,8,,
{8}1-5[70#8:1],,2,,3-7[70#8:1],,4,,
{8}5-1[70#8:1],,6,,7-3[70#8:1],,8,,
{8}1-5[70#8:1],,8,,7-3[70#8:1],,6,,
{8}5-1[70#8:1],,4,,3-7[70#8:1],,2,,
{16}1b,,,,2xqq3[70#4:1],,2,,3,,,,3xq4[70#4:1],,3,,
{16}4,,,,4xqq5[70#4:1],,4,,5,,,,5xq6[70#4:1],,5,,
{16}6,,,,8<3[70#4:1],,8,,,,,,8x,,,,
{16},,,,1,,1,,8,,,,27,,,,
{8}3-6[70#16:1]/6,,2,,6-3[70#16:1]/3,,7,,
{8}3-6[70#16:1]/6,,1,,6-3[70#16:1]/3,,8,,
{8}3-6[70#16:1]/6,,8,,6-3[70#16:1]/3,,1,,
{8}3-6[70#16:1]/6,,7,,6qq7>5b[70#4:3]/3,,2,,
{8}36,,,,,,,,
{8},,,,,,,,
(142){8}2h[4:1]/6,,4,3,5h[4:1],,1,82,
{8},8,71,,E7,B4,B5,E3,
{8}7h[4:1]/3,,5,6,4h[4:1],,8,2>7[70#16:3]/6,
{8},1,37,,,,,,
{8}2h[4:1]/6,,7,5,6,,43,25,
{8},56,47,,1/8^7^6^5^4^3^2^1[71#16:2],27,36,45,
{8},,,,,,,,
