&title=Rhuzerv
&artist=Feryquitous feat. Sennzai
&first=-0.08
&des=YOZ
&des_5=YOZ
&lv_5=14+
&inote_5=(191){4},{8},,,,,,,,,Ch[4:7],
,,,,,,,,,,,,,,6,
5,4,3,6-1[8:1],4,
{4}4,{8}3,4,5,6,3-8[8:1],5,
{4}5,{8}6,5,6,7,6<1[8:1],5,
{4}6/5,{8}3,4,3,2,3>8[8:1],4,
{4}3/4,{8}6,3,5,2-6[8:1],1-5[8:1],2,
{4}1,{8}3,6,4,7-3[8:1],8-4[8:1],7,
{4}8,{8}7<4[8:1],8,1,2<7[8:1],3,4,
{4}5h[4:1],{8}2>5[8:1],1,8,7>2[8:1],6,5,
{4}4h[4:1],{8}8x,{16}7,5,{8}7,{16}2,4,{8}2,8,
1,7-4[8:1],7,3>8[8:1],3,6-1[8:1],6,3,
{4}3h[4:1],{8}7x,{16}6,5,{8}7,{16}3,4,{8}2,{16}7,8,
7,8,{8}7,6/1,4/3,2-4[8:1],7-3[8:1],2-8[8:1],7,
{4}2b,{8}5/6,8/1,4/3,{16}7b,8,6,5,7,4,
8,3,{8}1/2,4/5,7/8,4/5,{16}2b,1,3,4,2,1,
3,4,{8}2xh[4:7]/6xh[4:7],,,,,,,,,,,,,,B6/C/B2,
,7-4[8:1],8,1<6[8:1],2,3-8[8:1],4,3,
,5>2[8:1],6,7-3[8:1],8,1-5-2[4:1],2,1,
,7,7,8,8,6-4[8:1]/1-5[8:1],7/8,6/1,
,2,2,1,1,3bh[8:1]/8bh[8:1],,4/7,
4/7,6-1[8:1],5,4<7[8:1],3,2-6[8:1],1,2,
,8>3[8:1],7,6-2[8:1],5,4-1-5[4:1],3,4,
,8-3[8:1],7,6-1[8:1],5,4-8[8:1],3,2h[8:3],
,1,1,{16}7,5,7,5,7,5,{4}Ch[4:1],
{8},1b,,7,7,1-5[8:1],8,1,
,7-1[8:1],7,2-6[8:1],2,5-8-4[4:1],5,1,
,2-8[8:1],2,7-3[8:1],7,4-6[8:1],4,8,
,1/8,3,5,4,6bh[8:1]/5bh[8:1],,7/4,
4/7,2>5[8:1],2,7-3[8:1],7,1-5[8:1],1,8,
,7<4[8:1],7,1-5[8:1],1,8-4-1[4:1],8,2,
,5,5,4/8,4/8,3/7,3/7,6h[8:1]/2h[8:1],
,B7/E7,B3/E3,B5/E5,{4}B8/E1/B1,C,
{16},,8b,7,6,5,4,3,2,1,8/B3/E4,7,6,5,4,3,
2,1,8/C,7,6,5,4,3,2,1,8/B3/E4,7,6,5,4,3,
2,1,8/B8/B1,7,6,5,4,3,2,1,8/C,7,6,5,4,3,
2,1,8/B3/E4,7,6,5,4,3,2,1,{8}8b/Cf,,,1/8,
{16}1b,2,3,4,5,6,7,8,1/B6/E6,2,3,4,5,6,
7,8,1/C,2,3,4,5,6,7,8,1/B6/E6,2,3,4,5,6,
7,8,1/B8/B1,2,3,4,5,6,7,8,1/C,2,3,4,5,6,
7,8,1/B6/E6,2,3,4,5,6,7,8,{8}1b/Cf,,,8/1,
{16}8b,7,6,5,4,3,2,1,8/4b,3,2,1,8,7,
6,5,4/8b,7,6,5,4,3,2,1,8/4b,3,2,1,8,7,
6,5,{8}4/8b-6-4[2:1],,,,4-2-8[2:1],,,,8<4[8:3],
,,,1,{4}1,
{8}3/7,3/7-1-5[2:1],,,,5-7-3[2:1],,,,3-5-1[2:1],
,,,3,3,4,
3,2h[2:1],,,,4h[2:1],,,,5h[2:1],
,,,7h[2:1],,,,Ch[4:1],
,,,5/6,4/7,5/6,
4/7,3/8,2/1,3/8,4/7,5/6,4/2,5/7,
3/1,6/8h[2:1],7,6,7,6,5,4h,
3h,2/1,2/1,8/7-3[8:1],7/8-2[8:1],7-5[8:1],8-4[8:1],7>4[4:1],
8,7b,,,,4/3,5/2,4/3,
5/2,6/1,7/8,1/6,2/5,4/3,5/7,4/2,
8/6,3/1h[2:1],2,3,2,3,4,5h,
6h,8/7,7/8,1/2,2/1,8-4[8:1]/3-8[8:1],,3/8,
,Cf,{16},,8,7,6,5,{8}4/2-5[8:1],1,7-3[8:1]/2-8[8:1],
6,2/7,,5/6,7,4,8-4[8:1],4-8b[8:1],
8<3[4:1],,,,,1/2,1/2,8/3,
4/7,{16}6,6,{8}5,{16}4,4,{8}7,{16}1,2,3,4,{8}5/7-4[8:1],
8,1-6[8:1],2,3,,5-1[8:1],8>5[4:1],5,
8,{24},,,,,,,,,,,,7b/8b,6/1,5/2,,,,2b/1b,3/8,4/7,
,,,7b,6,5,4,3,2,1,8,7,{8}6h[4:1],2-5[8:1],2,8-4[8:1],
8,2,{16}2,,,7,{8}5h,{16}2,4h,,,{8}6h[4:1],
5,4,3h[4:1],2,1,8h[4:1],7,6>8[4:1],
5,4h[4:1],,,,7h[8:1]/3h[8:1],,6h[8:1]/2h[8:1],
,5h[4:5],,1,1,8,2,7,
3,{24}6x,7x,8x,1x,2x,3x,4x/Cf,,,,,,{8}8x<5b[8:1]/1x>4[8:1],,,,3/6,
3/6,{16}5,4,5,4,6,3,6,3,7,5,
7,5,8-4[8:1],6,8,6,{8}8b,,1<6[8:1]/2>5[8:1],,2/1,
{16},,7,5,7,5,6,4,6,4,5,3,5,3,{8}4h[8:1],
2h[8:1],4,{16}8,7,,5,{8}6,7/4,5/6,{16}7,8,
1,2,{8}3h[4:1]/1h[4:1],,,,6b/Cf,{16},2b/Cf,,,8bx/4bx,
,,6b/Cf,,,{8}2b/Cf,{16},8bx/4bx,,,{4}B7/B6/B2/B3/E3/E7/Cfh[8:3],
{16},,,,,,1,2,3,4,{8}5/7-4[8:1],8,2-6[8:1]/7-1[8:1],
3,7/2,,4/3,2,5,1-5[8:1],5-1b[8:1],
1-3-6[4:1],,,,,8/7,8/7,1/6,
5/2,{24}4,3,2,1-5[8:1],8,7,6,,,,,,{8}7h[4:1],,5h[4:1],
,3-8[8:1],2,3,,7-4[8:1],7,1-5[8:1],
1,7,{16}7,,,2,{8}4h,{16}7,5h,,,{8}3h[4:1],
4,5,6h[4:1],7,8,1h[4:1],2,3<1[4:1],
4,5h[4:1],,,,2h[8:1]/6h[8:1],,3h[8:1]/7h[8:1],
{32},,,,8b/4,3/7,2/6,5/1,4b/8h[8:9],3,2,1,,7,6,5,4,3,2,1,,7,6,5,4,3,2,1,,7,6,5,
4,3,2,1,,7,6,5,4,3,2,1,{8}Cf,,1x>4b[8:1]/8x<5[8:1],,,,6/3,
6/3,{16}4,5,4,5,3,6,3,6,2,4,
2,4,1-5[8:1],3,1,3,{8}1b,,8>3[8:1]/7<4[8:1],,7/8,
{16},,2b,1,3,4,2,5,1,6,8b,7,5,6,4,7,
3,8,{8}2xh[8:1]/1xh[8:1],{16},2xh[8:1]/1xh[8:1],,,{8}3x/8x-4[8:1],,,3>5[2:1],
,D1f,,,,E3/B3,,,,E7/B7/B6,
,,,B2,,B5,
,7-5-8[8:3],,,2,2,,4,
5,3/B7,,,,B1/B2/E2,,,,B6/B5,
,,,7,8,1-4[8:1],
2,3,,,4/6,4/6,,5/3-8-2-5[2:1],
,8,,,B7,,,5,
4,6/B2,,,,8/1,,5/7,
,4/2V48-3[2:1],,,,5,,6,
7,8z4[8:3],,,,3,,2,
,1-3-5[4:1],,,6,6,,1,
8,2/B6,,,,6h[2:1],,,,4h[2:1],
,,,7,2,8-5[4:1]*z4[4:1],
1,8,,,,2/4,,7/5,
{24},,,1/8h,2,3,{4}4,{24}8/1h,7,6,5,,,,,,{8}2/6,
,8/4,{24}4/8,7/3,6/2,5q7[2:3]/1q3[2:3],
E
