&title=プシ (feat. 初音ミク)
&artist=r-906; 初音ミク
&first=0
&des_5=baiqieji
&lv_5=14
&des=baiqieji
&inote_5=(174)
{4}
,,,,
{16}
1s5[8:27],,,,,,,,,,,,,,,,
6,,,,6h[4:2],,,,,,,,,,,,
,,3,,6,,6h[8:3],,,,,,,,
3,,,,3h[4:2],,,,,,,,,,,,,,
2h[16:3],,6,,2h[16:3],,6,,6h[16:3],,2,,6h[16:3],,2,,
3h[16:3],,7,,3h[16:3],,7,,7h[16:3],,3,,7h[16:3],,3,,
8,,7,,6,,5,,7,,6,,6,,5,,8,,5,,7-5[8:1],,6-8[8:1],,,,,,,,,,
3b/7b,,4,4,5,,3,,6h[4:1],,2h[8:1],,,,5,5,
4,,6,,4-6<7[8:1],,3v4-2<1[8:2],,,,,,,,,,
8,,7,7,1,,6,,3v1[8:1],,3,,,,5,5,
2,,6,,45,,3,,5,,26,,7,,1,,
1,,1,7,1,,1,,16,,14,,1,,1,3,
1,,15,,24,,35,,6,,37,,2,,18,,
7,8,6,1,5,2,4,3,1,2,8,3,7,4,6,4,
5,3,5,2,5,1,5,8,5,7,5,6,5v6<7[16:3]*-1>2[16:3],5,5,5,
5b/Cf,,,,,,,,,,,,,,,,
,,,,,,,,,,,,{64}E1,E2,B1,A2,B2,E3,B3,A3,B4,E4,E5,,,,,,
{16}
7,,6,6,4,,7,,5-3[8:1]/6,,4,,7-1[8:1],,8,,
2,,3,,4-2[8:1],,3,,46,,7,7,1,,6,,
34,,2,2,4,,3,,6-8[8:1]/5,,7,,1-5[8:1],,2,,
5,,6V85[4:1],,1,,5-1[8:1],,,,2,3,4-1[8:1]*-7[8:1],,,,
4b/B2f/B6f,,,,,,,,3,,3h[8:1],,5,4,6,5,
7,5,7,4,6,3,5,4,5,3,4,3,6,,56,,
7,5,,5,8,,8,3,8,2,7,1,6,,34,,
26,,1,5,2,4,3,5,4,6,5,,46,,35,,
1,,18,,7,7h[16:1],,56,,4,5,3,6,5,7,2,
4,3,,3,5,4,6,5,7,5,6,,78,,12,,
3,4,2,6,5,7,2,1,3,6,5,7,2,,7,7,
3,5,4,6,2,7,1,8,2,1,3,7,4,,45,,
36,,6,5,,5,7,3,4,,35,,6,5,7,4,
6,,6,4,5,3h[8:1],,1,,18,,7,7h[8:2],,6,,
5,6,,6,5,,5,7,3,4,2,4,2,,34,,
56,,7,5,,3,4,3,5,2,6,1,7,,18,,
6,,5/7h[8:1],,8,8,,17,,1,8,2,7,8,6,8,
7,1,7,1,6,5,6,5,8,1,8,2,7,,18,,
3,4,2,6,5,6,4,7,3,,6,5,6,,3,4,2,,
5,5,3,4,3,1,2,1,3,4,3,1,2,1,
{32}B1f,C,B5,A5,,,,,,,,,,,,,{16},,,,,,,,
6,,6,,6,,6,,6/A2,A3,6/A4,,6,,6,,
6,,6,,6,,6,,6/A2,A3,6/A4,,6,,3,3,
6,,7,5,7,6,8,6,8,5,7,6,7,5,8,,
1s5[4:6],,,,,,6h[8:2],,,,,,3h[8:2],,,,
,,6h[8:2],,,,,,3h[8:2],,,,,,,,
2,,2,,2,,2,,2/A7,A6,2/A5,,2,,2,,
2,,2,,2,,7V13[4:1],,,,37,,5w1b[8:1],,,,
5b,,,,4-8[8:1]/7,,3,,4/1-5[8:1],,2-4[8:1],,1,,2-6[8:1],,
,,2/6-2[8:1],,7,,8>6[4:1],,,,8/6,,7-3[8:1]*v4[8:1],,,,
7b,,,,2-5[8:1],,1,,2/6-2[8:1],,7,,8,,1<6[8:1],,
,,1-3[8:1]*-4[8:1],,,,1b,,,,5,,5/6-1[8:1],,,,
4-8[8:1],,3,,5v2[8:1],,6,,3>6[4:1],,4,,6,,5>7[4:1],,
,,58,,7,,6w2[8:1],,,,6,,,,8,,7<2[4:1]/1,,
,,72,,1,,8,,8-2[8:1]*-3[8:1],,,,8-5[8:1],,
,,8v3[8:1]/7-3[8:1],,,,78,,,,45,,7-3[8:1]/8>3[8:1],,,,
78,,,,4-8[8:1]/5,,3,,4/6-2[8:1],,5>7[4:1],,6,,5,,
,,5,,6,,7-3[8:1]/8,,,,7/3,,5-1[8:1]*-3[8:1],,,,
5,,,,8-4[8:1],,7,,8/5>2[8:1],,6,,7,,7-5[8:1]*-3[8:1],,
,,7-1[8:1],,,,7,,,,2,,34,,56,,
7-4[8:1],,8,,2-5[8:1],,1,,6-3[8:1],,7,,1,,2>7[4:1],,
,,8,,1,,2>7b[4:1],,,,8,,1-5[8:1],,,,
{32}B1f,C,B5,A5,{16},,,,,,,,,,,,,,
,,,,,,,,,,,,
{64}E1,E2,B1,A2,B2,E3,B3,A3,B4,E4,E5,,,,,,
{16}
7,,4,4,5,,3,,2-8[8:1],,3,,4-6[8:1],,5,,
3,,2,,17,,5,,2-8v5[4:1],,3,4,2,,5,,
7,,4,4,6,,3,,2<7[8:1]/4,,3,,2/5-1[8:1],,4,,
5/2-4[8:1],,2-6[8:1],,,,,,5w1[8:1],,,,5,,,,
3,,6,6,5,,7,,8-2[8:1],,7,,5-3[8:1],,4,,
7-4[8:1],,8v3[8:1],,7,,8,,,,5b/2,6,7-3b[8:1]/4b,,,,
{32}B7f,C,B3,A3,,,,,,,,,,,,,{16}
2,,24,,5,5,3,4,2,4,3,5,4,7,5,8,3,1,2-6[8:1],,18,,2,,
7,7h[8:1],,4b,B7,B6,B5,B2,B3,B4,7,,18,,3,,
65,,5,,45,,4,5,3,,34,,2,,1,,
8-5[8:1],,7,,8-3[8:1],,3,,4b,,6b,,57,,34,,
2-4b[8:1],,3,,5-7[8:1],,6,,1-7b[8:1],,2,,5s1[4:1],,,,
6,,7,,8x,,7xh[4:1],,{32}2x,1x,8x,,6x,5x,4x,3x,2x,1x,8x,7x,6x,5x,4x,3x,{16}
2b/6b,,5,5,3,4,2,4,3,7,3,4,8,4,3,1,
{32}B2f,C,B6,A6,{16},,,,,,,,,,,,,,
3,,3,,3,,3,,3/A7,A6,3/A5,,3,,3,,
3,,3,,3,,3,,3/A7,A6,3/A5,,3,,5,5,
4,,6,5,6,4,5,4,6,5,7,5,6-2[8:1],,8h[8:1],,
6<4[4:3],,,,,,,,,,,,,,,,
6,,6,,6,,6,,6/A2,A3,6/A4,,6,,6,,
6,,6,,6,,6,,6/A2,A3,6/A4,,6,,3,3,
5,,5,4,6,5,7,6,8,5,7,6,8,5,7,5,
{32}B8f,C,B4,A4,,,,,{16},,,,,3,4,3,5,4,5,3,
4,3,5,4,5,3,4,3,5,4,5,3,4,3,5,4,
5,3,4,2,5,4,6,3,4,2,5,4,6,3,4,2,
5,4,6,3,4,2,5,4,6,3,4,1,5,4,7,3,
4,,,,B2/B3/E3,,,,,,,,,,,,
,,,,,,,,,,,,,,{48}A2f/E3/E2/B2,B1/B3/E4,C,B8/B4,B7/B5/E8,B6/E7/E6/A6,
{16},,,,5b/2b,,7b/4b,,8b/7b,,1b/3b,,7b/6b,,2b/3b,,
2b/1b,,4b/1b,,4b/2b,,4b/1b,,8b-3[8:1]/7b-4[8:1],,3bV52[8:2]/4bV61[8:2],,,,,,
Cf,,,,,,,,2<6q6[4:12]/6>2q2[4:12],,,,
,,,,,,,,,,,,,,,,,,,,,,,,,,,,,,,,,,,,,,,,,,,,,,,,,,,,
3h[8:3],,,,4h[4:1],,,,5h[8:4],,4h[8:1],,,,6h[8:3],,
,,5h[8:2],,,,3h[8:2],,,,5h[8:2],,,,4,,
4>1[8:1]/5<8[8:1],,,,,,,,7h[8:1],,{24}4-8[8:1],5,6,7,8,1,{16}2/4-2[8:1],,
{32},,,,7-3[8:1]/4,6,5,,,,,7/3,4,5,,,{16},,2,,1w5[8:1],,,,1b,,,,
7>2[8:1],,6,,7/4-8[8:1],,3-7[8:1],,4,,3V14[8:2],,
,,6<1[8:1],,5,,6,,3-7[8:1],,4,,3/5h[4:1],,,,
{24}8<5[8:1],1,2,{16}3V16[4:1],,8,,3,,4,,4,,8,,{32}5-2b[8:1],6,7,8h[32:9],
{16},,5,,,,{32}1-5b[8:1]*p4[8:1],28,37,46,{16},,1b,,,,3,,
{32}3/4-1[8:1],5,6,7,{16},,5-7[8:1],,5-3[8:1],,5x-8[8:1],,5x-2[8:1],,5x,,5x,,
,,1,,7,,{32}5h[16:3]/2V48[8:2],1,8,7,6-8[8:1],,4,3,{16}2,,,,,,
1<6[8:1],,2,,4-8[8:1],,5,,2,,1,,7h[16:3],,{32}
8b,1,2,3,,,,,5/4bx,3bx,2bx,1bx,,,,,2b,31,48,57,,,,,{16}8,,2,,53,,
6-2[8:1],,6,,5-3b[8:1],,5,,7-1[8:1]*-1[8:1],,7,,3,,5>7[4:1],,
,,8,,6,,4>6[4:1]*>6[4:1],,,,5,,5w1b[8:1],,,,Cf,,,,E
