&title=Lament Rain
&artist=Ashrount vs. 打打だいず
&first=-0.257
&des=寿司配拉面
&lv_5=13+
&des_5=寿司配拉面
&inote_5=
(200){4},,,,{64}E1,
E8/E2,E7/E3/Cf,E6/E4/E5,{16}5x/4x>5[16:35],{1},{4},,,{8},{1}4x>5[4:9],
,3>6[4:9],
,2h[1:1],
Cfh[1:1],
{8}1h[4:1],,,2bh[4:1]/8bh[4:1],,,{4}1-6-2-4[4:3],
{8},,,,,,,,6h[4:1]/Cf,
,,5bh[4:1]/7bh[4:1],,,{4}6-8-4-1[4:3],
,,,,3/B7/E8/B8,
3,3,3,
2/B5/E5,2,2,2,
{8}1/B6,1,1,1,{16}2,7,4,5,3,6,3,6z2v1[16:9],
{1}C,
{4}2h[4:1],D6/A5/E6f,{8}8x,D3/A3/B3/E3f,,4x,
{4}A8/D8/B7/B8/E8f,{8}5x,A4/D4/A3/B3/B4/E4f,,1x,{4}A7/D7/A6/B6/B7/E7f/E6,
{8}3/4,3,5/2,5,6xh[16:1]/4xh[16:1],4xh[16:1]/6xh[16:1],3xh[16:1]/7x-3b[8:1],2xh[16:1]/8xh[16:1],
{1}7pp4[2:1],
{64}E6,E4,E7,E3,D8,D2f,,,,,,,,,,,,,,,,,,,{8}7,{4}7h[4:1],{8}8,1h[4:1]/6>3[8:1],
,,,,3/1,4,{4}B2,
{8}6h[4:1]/5-2[8:1],,,7,7,B2,B7,C,
,8,{16},,4,5,{4}2b-5[8:1],6,
{8}8b/B3f/E4/E3,,,7,7-4[8:1],4-8[8:1],3,3,
,2h[4:1],,1,{4}3x/8x,{8}2,2,
7h[2:1],{16},,,,4,3,2,,,2h[16:5],,,4,5,
6,,,6h[16:5],,,5,4,{4}3h[4:1],4,
{64}E4,E6,E3,E7,D2,D8f,,,,,,,,,,,,,,,,,,,{8}2,{4}2h[4:1],{8}1,8h[4:1]/3<6[8:1],
,,,,6/8,5,{4}B7,
{8}3h[4:1]/4-7[8:1],,,2,2,B7,B2,C,
,1,{16},,5,4,{4}7b-4[8:1],3,
1b/B6f/E6/E7,{8}3,8b,,5,{4}1b,
{16}3,4,{8}2b,{16},,6,5,{4}8b,{16}3<2[1:1],4,3,4,
{1}3b,
{8}7>2b[8:1],,,Cfh[8:3],{16},,,,,,,,8,
7,6,5,{8}1,{16}1,2,3,4,{8}8,{16}8,7,6,5,
{8}1,{16}1,2,3,4,{8}7,7,2,{4}1b/8b,
{16}1,2,3,4,{8}7,{16}7,6,5,4,{8}2,{16}2,3,4,5,
{8}8,{16}8,7,6,5,{8}2,2,7,{4}8b/1b,
{16}7,6,5,4,8,7,6,5,{4}8h[4:1],{16}4,3,2,1,
{4}4h[4:1],{16}2,3,4,5,{4}1,8h[8:1]/4h[8:1],
6b/2b,{8}4b/3b,5b/6b,,1b/8b,,7b-4[8:1]/2b-5[8:1],
,7b/2b,,Cfh[8:3],,,,,{2}8h[4:1]/1h[4:1],
{6}A7f,A5f,A3f,
{8}A1f,E8f,E6f,{24}E3f,,E1,,E7,{48},,{16}E5,B3,B1,B7,B5,B3,
{4}C,1b>4[8:1],1/8,{8}6,6,
{6}5/7h[12:1],4/5h[12:1],4/2h[12:1],5-8[8:1]/1-4[8:1],{12},{4}5/1,
3b/7b,{16}3,4,3,4,2,5,2,5,{8}2b-5[8:1],8b,
{16},,,,6,5,6,5,7,4,7,4,{8}7b-3[8:1],1b,
{16},,,,2,1,2,1,3,8,3,8,{8}3b-5[8:1],7b,
{16},,,,6,5,6,5,7,4,7,4,{8}8b<1b[1:1],1b,
,,,,,,,,4,
4,5,5,3,3,6,6,
2/5,2,7/4,7,1/6,1,8/3,8,
{16}1,7,1,7,8pp1[4:1],7,8,7,{2}8,
{16}6b/C,,,2b/C,,,{8}8b/4b,{4}B7/B3,{16}2bh[16:3],,,4bh[16:3],
,,{8}6bh[16:3],{16},8bh[16:3],{32},,,,E5/B4,B3,E3,A2,,,,,,,,,,,,,{16}1b/C,
,,5b/C,,,{8}7b/3b,{4}B6/B2,{16}7bh[16:3],,,5bh[16:3],
,,{8}3bh[16:3],{16},1bh[16:3],{32},,,,E5/B5,B6,E7,A7,,,,,,,,,,,,,{16}6b/C,
,,2b/C,,,{8}8b/4b,{4}B7/B3,{16}2bh[16:3],,,4bh[16:3],
,,{8}6bh[16:3],{16},8bh[16:3],{32},,,,E5/B4,B3,E3,A2,{4},{16},,{12}5b,
4b,{48},,,,{16}6b,,,7b/2b,,,1b,1b,{4}8bh[8:3],
{8},2b-5[16:1],{16},7b-4[16:1],,,{2}1xh[4:1],
{4}7/2h[4:1],{8}8,3/8h[4:1],,6x,8x,7bx/1bx,
,6,8,1b/7b,,4/3,{4}4/3,
2/6h[4:1],{8}4,7/4h[4:1],,2x,4x,3bx/5bx,
,2,4,3b/5b,,2/7,{4}7/2,
{8}8,8,1,1,7,7,2,2,
6/1,6,3/8,3,5/2,5,4/7,4,
5/3,5/3,6/2,2/6,{16}1,7,1,7,8-3-6-1-5[8:7],7,8,7,
{1}8,
8x<1[2:3],
C,
8x<1[2:3],
C,
8xqq5[2:3],
E3,
1xpp4[2:3],
E7,
{4}7,{8}5,6,{4}4,4/3h[1:1],
B2,,,4,
2,{8}4,3,{4}5,5/6h[1:1],
B7,,,5,
7,{8}5,6,{4}4,3/4h[1:1],
E1,,,2,
2,{8}4,3,{4}5,6/5,
{2}Ch[2:1],{8}1x,1x,,,{4}5b/B3f,
{8}6,6,{4}7h[4:1],{8}4,{16}4,3,
{4}2h[4:1],{8}7,{16}7,6,{4}5h[4:1],{8}1,{16}1,2,
{4}3h[4:1],{8}8,{16}8,7,{4}6h[4:1],{8}2,{24}2,3,4,
{4}5h[4:1],{8}8,{24}8,7,6,{2}5-1[8:1],
{8}4,4,8,8,3/7,3,6/2,6,
1/5,1/5,1/5,1/5,{16}2,6,2,6,3,7,3,7,
{1}3<2[4:3],
{8}7>2b[8:1],,,Cfh[8:3],{32},,,,,,,,,,,,,,,,8b-3[8:1],
7,6,5,,,,,{8}8,5,6,{16}3,4,{8}3,2-5[8:1],
5,2,7,8-4[8:1],4,8,2,1,
{32}1b-6[8:1],2,3,4,,,,,{8}1,4,3,{16}6,5,{8}6,7,
{16}4,3,2,1,8/4,7,6,5,{4}4/8,{8}6/2,2,
{4}2/1,{8}5>2[8:1],6,{4}7/5,{8}8-4[8:1],7,
{4}8/6,7<4[8:1]/3>8[8:1],7/3,{8}5h[4:1],{16}1,2,
3,,,1/3,,,8,7,6,,,6/8,,,2,3,
{8}4,1-5[8:1],3,1,,4,2,8,
{32}8b-3[8:1],7,6,5,,,,,{8}8,5,6,{16}3,4,{8}3,2-5[8:1],
5,2,7,8-4[8:1],4-7[8:1],8,2,1,
{32}1b-6[8:1],2,3,4,,,,,{8}1,4,3,{16}6,5,{8}6,7b/4bw8b[8:1],
{32},,,,4b,B4,Cf,B7/B8/B1,,,,,,,,,,,,,{8}3/6,4,5,
{4}7/2h[4:1],{16}8,1,8,1,{24}7b,6,5,4/3,,,{8}2,2,
{4}7h[4:1],{16}1,8,1,8,{24}2b,3,4,5/6,,,{8}7,7,
{4}2h[4:1],{12}8,8,1,{24}7b,6,5,4/3,,,{8}2,2,
{4}7h[4:1],{16}1,8,1,8,{32}1b,2,3,4,5,6,7,8,1,2,3,4,5,6,7,8,
{1}1b/5bh[4:15],
{8},,,,,,1,1h[8:3],
,,,,{2}3h[4:1],
2h[4:1],1h[4:1],
{8}2b,{16}6,5,{8}6,1b,{16}6,5,{8}7,2b,{16}6,5,
{8}8,{16}2b,1,2,1,3b,8,3,8,{8}2b,7b,{16}3,4,
{8}3,8b,{16}3,4,{8}2,7b,{16}3,4,{8}1,7b,
8/2,3b,6/5,7b,2b,{16}6,5,{8}6,1b,
{16}6,5,{8}7,2b,{16}6,5,{8}8,{16}2b,1,3,8,4b,7,
5,6,{8}5b,7b,{16}3,4,{8}3,8b,{16}3,4,{8}2,
7b,{16}3,4,{8}1,{16}8b,2,{8}8,{16}4b,5,{8}4,7b,
{16}2b,6,5,6,{8}4b,{16}8b,3,4,3,{8}5b,{16}2b,6,5,6,
4b,7,4,7,3b,8,3,8,2b,1,2,1,{32}2b,3,4,5,8b,7,6,5,
{1}1b-5b[2:3],
,7h[1:2],
,5-1[2:3],
B6,
B3,
Ch[4:5],
E
&lv_6=14+
&des_6=我已经写了三遍拉面雨了
&inote_6=(200){4},,,,{1}2q6[2:3]/6q2[2:3],
,1<5[2:3]/5>1[2:3],
,8pp3[2:3]/4pp7[2:3],
,6/2V41[4:5],
8-5b[4:1],
{8}2h[4:1]/6h[4:1],,,1h[8:11]/8-2-4-1-5-7[8:9],,,,,,,,,,,,,7h[4:1]/3h[4:1],
,,8h[8:11]/1-6s2v4[8:9],,,,,,,,,,,,,{4}3,
3,4/2,4/2,
6,6,5/7,5/7,
{8}3/8,2,1/6,7,{16}2,8,2,8,2,8,2,8,
{1}1bs5[4:3]*v3b[4:3],
{4},7bxh[4:1]/4bxh[4:1],{8},5bxh[4:1]/3bxh[4:1],,,2bxh[4:1]/8bxh[4:1],
,,3bxh[4:1]/7bxh[4:1],,,4-8[8:1],4,
6-1[8:1],6,2-5[8:1],2,8<5[8:1],8,{16}4,3,2,1,
{4}8-4[16:15],,,8-4b[8:1],
{8}C,{16},,,,3,4,{8}2-5[8:1],5-3-8[4:1],,7-3b[8:1],
,7b,,1,1,7,{4}7>6[8:3],
{8}B1/B2/E2,{16},,,,2,3,{8}4-8[8:1],7-5[8:1],4,7,
,2,{4}2-6[8:1],{2}8-5[8:1]*-4b[8:1],
{4}7/1,{8}3,{16}3,4,{8}2,2-6[8:1],,5-8[8:1],
,1,,7/2,7h[4:1]/2h[4:1],{16},,,,B3,B4,
{8}1xh[4:1]/B5,{16},,,,B5,B4,8x/B3,,,8xh[16:3],,,E3,E4,
1x/E5,,,1xh[16:3],,,E5,E4,{4}8xh[4:1]/E3,1-5[8:1],
{8}C,{16},,,,6,5,{8}7-4[8:1],4-6-1[4:1],,2-6b[8:1],
,2b,,8,8,2,{4}2<3[8:3],
{8}B8/B7/E8,{16},,,,7,6,{8}5-1[8:1],2-4[8:1],5,2,
,7,{4}7-3[8:1],{2}1-4[8:1]*-5b[8:1],
{4}8/2-5[8:1],{8}2/8,7-3[8:1],,7/8,{4}1-5[8:1],
{16}1/6,7,{8}8-4[8:1],{16},,8/3,2,{8}1,1,{16}7,2,6,3,
{1}5h[1:1]/4h[2:1],
8>3[2:1]*<5[2:1],
{16}3,4,3,4,{8}2h[8:1],{16}6,5,6,5,{8}7h[8:1],{16}3,4,2,4,
{8}1h[8:1],{16}6,5,7,5,{8}8h[8:1],{16},4,3,2,1/8,7,6,5,
3,4,2,4,{8}3h[8:1],{16}6,5,7,5,{8}6h[8:1],{16}2,4,3,4,
{8}2h[8:1],{16}7,5,6,5,{8}7h[8:1],{16}1,2,3,4,8,7,6,5,
3,4,2,5,3,4,2,5,{4}3>8[8:1],{16}3/8,7,6,5,
{4}4<7[8:1],{16}8/4,1,2,3,{4}4>1[8:1],{16}4/8,7,6,5,
{4}4-7[8:1],{8}4/1,2-6[8:1],,2/8-5[8:1]*-3[8:1],,8,
,6/2,2/6,1h[8:1],{16}8,7,6,5,1,2,3,4,
{2}5h[4:1]/1h[4:1],{16}4xh[32:1]/3xh,,,7xh[32:1]/6xh,,,{8}2xh[32:1]/8xh,
3,3,7,7,{16}1,8,1,8,{32}1x,2x,3x,4x,8x,7x,6x,5x,
{4}2xh[4:1]/4x-8b[8:1],{24}4>6[8:3],Cf,,,,,,,,,,,,,,,,,{6}4/3,
2/1,8/7,6-1[8:1]/5-2[8:1],{12},,,,{4}8/3,
{16}7,4,5,4,6,3,4-8[8:1],3,{8}6xh[8:1],4x,
{16},,,,2,5,4,5,3,6,5-1[8:1],6,{8}3xh[8:1],5x,
{16},,,,7,5,6,5,8,4,5>1[8:1],4,{8}7xh[8:1],5x,
{16},,,,2,4,3,4,1,5,4<8[8:1],5,{8}2xh[8:1],4x,
,,1/2,3,4/6,7,8/1,2,
3/7,6,5/4,3,2/8,7,{4}6/4,
{16}3,5,3,5,2,6,2,6,1,7,1,7,2,8,2,8,
1b,1b,1b,1b,1bw5b[8:1],1b,1b,1b,{24}1b,Cf/B6/B4,{4},{16},,{64},,{96},{32}1b,
2,3,4,,,1b,2,3,4,,,1b,2,3,4,,,,,,,,,{16}2x-5[16:1],,,7x-3[16:1],
,,{8}1x-4[16:1],{16},6x-2[16:1],,,{2}3x-5[16:1],
{32}8b,7,6,5,,,8b,7,6,5,,,8b,7,6,5,,,,,,,,,{16}7x-4[16:1],,,2x-6[16:1],
,,{8}8x-5[16:1],{16},3x-7[16:1],,,{2}6x-4[16:1],
{32}1b,2,3,4,,,2b,3,4,5,,,3b,4,5,6,,,,,,,,,{16}2x-5[16:1],,,8x-3[16:1],
,,{8}6x-1[16:1],{16},4x-7[16:1],,,{2}2x-5[16:1],
{8}4/6,3/7,{16}2/8,,,1h[16:3],,,{8}8,{4}2h[4:1]/7h[4:1],
{8},3x-7[16:1],{16},5x-8[16:1],,,{2}1x-4[16:1],
{4}7-3[8:1],{8}7/3,4h[4:1],,1-5[8:1],3,1,
,1-5b[8:1],7,1,,B7h[8:1],,,{4}2-6[8:1],
{8}2/6,5h[4:1],,8>3[8:1],6,8,
,8>4b[8:1],2,8,,B2h[8:1],,,8/7,
6,5/3,2,1/8,7,6/2,3,
4/5,6,7/1,2,3/4,5,4/6,7,
8/1,2/7,3/6,4/5,{16}4,5,3,6,2,7,1,8,
{1}1b-7-3-5b[2:1],
2-6[4:3],
4,
8-4[4:3],
6,
{2}1-4[2:1],4-7[2:1],
7-2[2:1],2-5[2:1],
5-8[2:1],8-3[2:1],
3-6[2:1],C,
{4}8>3[8:3],{8}3,3<6[8:3],,6,{4}6V82V46b[4:3],
{1}B3/B2,
{4}1<6[8:3],{8}6,6>3[8:3],,3,{4}3V17V53b[4:3],
{1}B6/B7,
{4}8>4[8:3],{8}4,4<8[8:3],,,{4}8q5b[4:3]*>5b[16:11],
,,,,{1}8-2-7-3-6-4[1:1],
{2}1h[4:1],{8}7b/2b,2b/7b,,,5/4,
4/5,4/5,{16}6,5,{8}7,7,7,{16}3,4,
{8}2,2,2,{16}7,8,{8}6,6,6,{16}2,1,
{8}3,3,3,8,1,1,8/2,2/8,
3/7,7/3,4/6,6/4,{2}5s1[8:1],
{8}8,8,7,7,6,6,5,5,
{16}3,4,3,4,2,5,2,5,1,6,1,6,8,7,8,7,
{2}1h[2:1],7h[2:1],
2h[2:1],{32}E7,E6,E5,E4,E3,E2,E1,E8,{4}3xv8[8:1]/7xv4[8:1],
3/7,{8}2-6[8:1],{16}5,5,{8}2-4-8[4:1],7-5[8:1],2,7x,
{32},,,,1x<6b[8:1],2x,3x,4x,,,,,{8}A1f,{16}3,4,5,6,7-2[8:1]/3-6[8:1],8,1,2,
{4}3/7,{8}1<6[8:1],{16}4,4,{8}1,2-6[8:1],,2x/4x-1[8:1]*-7[8:1],
,4bx,{16},,,,2/6,3,4,5,6/3,4,5,6,
{4}7/2-8[8:1],2/6-4[8:1],6/2-5[8:1],{8}2-8[8:1]/7-3[8:1],8,
{4}7/2,5w1[8:1],5,3/7,
{8}6b/1b,{16}2,5,3,4,{8}1,3b/8b,{16}7,4,6,5,{8}8,
{16}2,1,{8}2,3/8,3h[4:1]/8h[4:1],,,{4}6v1[8:1]/2v5[8:1],
6/2,{8}7-3[8:1],{16}4,4,{8}7-5-1[4:1],2-4[8:1],7,2x,
{32},,,,8x>3b[8:1],7x,6x,5x,,,,,{8}A8f,{16}6,5,4,3,2-7[8:1]/6-3[8:1],1,8,7,
{4}6/2,{8}1V35[8:1],{16}6,6,{8}1,7-3b[8:1],{32},,,,7bx/8bx-4b[8:1],1,{16}2,
{32},,,,7bx/8bx,6,{16}5,,,,,{8}3/4,2,6/5,7,
{4}1/8h[4:1],{16}3,8,4,7,{24}5,6,5,6,,,{8}2/1-5[8:1],3/8,
{4}2/1,{16}6,1,5,2,{24}4,3,4,3,,,{8}7/8-4[8:1],1/6,
{4}8/7,{12}2,4,3,7,5,6,6x/2x,{24},{8}2x/6x,
1x/5x,5x/1x,4x/8x,8x/4x,{24}1x,2,3,5x,6,7,2x,3,4,6x,7,8,
{1}1bV74[4:5]/5b-8-3b[4:5],
{8},,,,,,3,3h[8:5],
,,,,{2}1h[2:1],
7h[2:1],5h[4:1],
{8}8b/2,{16}3,4,{8}3,1b/7,{16}6,5,{8}6,8/1b,{16}3,4,
{8}2,{16}7,1,6,2,5,3,6,4,{8}7,2/8b,{16}7,5,
{8}6,7/1b,{16}2,4,{8}3,1b/8,{16}6,5,{8}7,{16}2,8,
3,7,4,6,3,5,{8}2,1/6b,{16}7,8,{8}6,5/4b,
{16}3,4,{8}2,1b/8,{16}7,8,{8}7,{16}4,5,3,6,2,7,
5,6,4-1[8:1],7,3,8,{8}4,{32},,,,8bx,7x,6x,5x,,,,,1bx,8x,7x,6x,
,,,,2bx,3x/1x,4x/8x,5x/7x,{4}6x-2b[8:1],6/1-5[8:1],8/1,
{16}4b,8,5,6,{8}2h[8:1],{16}5b,1,4,3,{8}7h[8:1],{16}1,8,1,8,
2,7,2,7,3,6,3,6,{24}4,5,6,7,8,1,{32}2/6,3/7,8/4,5/1,6pp1b[8:13],7,8,1,
A8/2bpp5b[2:3],B8,Cf,B4,{8}A4,,,,,,,,,,,,,,,{1}4>8b[2:3]/8<4b[2:3],
,7q3b[4:5]/3q7b[4:5],
,2/6V85[8:11],
4-1b[2:1],
B2h[2:5]/Ch[2:5]/B6h[2:5],
E
