&title=待宵ダンシング!
&artist=Sound CYCLONE
&first=0.595
&des_1=Dancin’ all the night!
&des_2=Dancin’ all the night!
&des_3=Dancin’ all the night!
&des_4=Dancin’ all the night!
&des_5=Dancin’ all the night!
&lv_5=13
&des_6=Dancin’ all the night!
&des_7=Dancin’ all the night!
&des=Dancin’ all the night!
&inote_5=(123)
{1},
{8}2/5h[16:11],,,,
{16}4,,,4q5[16:13],,,3h[8:7],,
{1},
{8}2/5h[16:11],,,,
{16}4,,,4q6[16:13],,,3h[8:7],,
{1},
{8}1/6h[16:11],,,,
{16}4,,,4qq7[16:13],,,2h[8:7],,
{1},
{8}1/6h[16:11],,,,
{16}4,,,4-8[12:1],,,2/4b,,
{8},3,5,7,1w5[8:1],,1,,
{8}7p3[8:1]/3,,1,,2/8,
{16},7,5<2[8:2],,8h[8:3],,
{8},,,,2/4,2,4/6,4,5/7p3[8:1],,8,,1/2,
{16},7,5<2[8:2],,8h[8:3],,
{8},,,,5h[8:1]/7h[8:1],,2h[8:1]/4h[8:1],,
{8}3/8p3[8:1],,2,,2/4,
{16},6,5<2[8:2],,8h[8:3],,
{8},,,,3/5,3,1/7,1,2/8p3[8:1],,1,,2/4,
{16},6,5<2[8:2],,8h[8:3],,
{8},,,,5h[8:1]/7,6,2/4h[8:1],3,
{8}4/5p1[8:1],,5/7,,7/8,
{16},5,4>7[8:2],,2h[8:3],,
{8},,,,5/6,6,3/4,3,2/5p1[8:1],,5/7,,6/8,
{16},5,4>7[8:2],,2h[8:3],,
{8},,,,3h[8:1]/4h[8:1],,5h[8:1]/6h[8:1],,
{8}2/4>1[8:1],,4/7,,6/8,
{16},5,4>7[8:2],,2h[8:3],,
{8},,,2,3/5,3,1/7,7,4>1[8:1]/8<5[8:1],,4/8,,1/4,
{16},3,5>7[8:2],,8h[8:3],,
{8},,,,2/4,3,
{16}7,5,6,,
{16}1,,2h[8:1]/4h[8:1],,,2h[8:1]/4h[8:1],,,2-6[8:1]/4-8[8:1],,,,
{8},,5,
{16}4h[8:1]/7h[8:1],,,4h[8:1]/7h[8:1],,,4>1[8:1]/7<4[8:1],,,,
{8},,8,7-5[8:1],5,3,,2<7[8:1],8,6,,5>6[8:3],4,2,,,1,,7,
{16}4h[8:1]/6h[8:1],,,4h[8:1]/6h[8:1],,,4-1[8:1]/6>3[8:1],,,,,,,,
{8}2,
{16}3h[8:1]/8h[8:1],,,3h[8:1]/8h[8:1],,,3qq1[8:1]/8<4[8:1],,,,
{8},,2,3-1[8:1],8,7,,
{16}6,,2,4,3,,
{4}7h[8:2],5h[8:2],4h[8:2],2h[8:2],
{8}5b-1[8:1],,7/5,,2/6,
{16}3,4,,6,5,,
{8}4/7<4[8:1],8,3-6[8:1],2,
{16}1,1,,2,2-4[8:1],,3/8,,
{8}2,1-4[8:1],8,1,7<4[8:1],
{16},8,7,,1,,
{8}2h[8:1]/4,8,5/7h[8:1],1,
{16}4,2,,7,5,,4,,
{8}8>3[8:1]/2,,6/8,7,4/8,
{16}2,1,,7,8,,
{8}1-5[8:1]/6,2,4>1[8:1],,
{16}8,8,,7,7,,1/6,,
{4}2/5<1[8:2],1>5[8:2],5<1[8:2],1,
{8},4-1[8:1],4,,
{16}7,7,,6,6,,2/5,,
{8}3/4b-8[8:1],,4/7,,
{16}2/6,,3,4,,6,5,,
{8}4/7-4[8:1],8,3<6[8:1],2,
{16}1,1,,2,2-5[8:1],,1/3,,
{8}2,1-4[8:1],8,1,7<4[8:1],
{16},8,7,,1,,
{8}2/4-1[8:1],8,7,,
{16}5,2,,7,4,,3,,
{8}1>4[8:1]/5<8[8:1],6,1/5,,4/8,
{16}7,1,,2,8,,
{8}3/7-4[8:1],5,1,2,
{16}3,3,,5,5,,6,,
{8}7>3[8:2]/5,,3<7[8:2],,7>3[8:2],,3,,
{8}4,4,5,5,2,7,
{16}4,5,4,,1b/8b,,,,2,6,4,,3/5,,,2,4,,1h[8:2],,
{8},8,6h[8:2],,2,3,5/7,6,3b/4b,,1b/8b,,
{16}3/7,,,6,5,,8h[8:2],,
{8},1,3h[8:2],,7,6,2/4,
{16}6,5,
{8}4b/7b,4b/7b,1b/8b,,2,4,3,7h[8:2],
{8},5,3h[8:2],,1,7,4/6,
{16}3,4,
{8}2b/5b,1b/7b,4b/6b,1b/8b,,3,5,2h[8:2],
{8},7,
{16}3,5,4,,6,1h[8:2],,3,,8,,,
{8}2/7q3[8:1],,4,,5/6,
{16},5,7>4[8:2],,1h[8:3],,
{8},,,,4,5,4/6,7,7q3[8:1]/5,,4,,
{16}6,5/6,,3,3/4,,1h[8:2]/5,,
{8},8,7,
{16}6,4,5,,2,4,3,6,5,,
{8}4/7q4[8:1],,2,,3/5,
{16},4,7>4[8:2],,1h[8:3],,
{8},,,,4,5,4/6,7,3/7q4[8:1],,2,,
{16}3/6,,,4,7>4[8:2],,1h[8:3],,
{8},,,,5h[8:1]/6,7,3/4h[8:1],2,
{16}5,,4h[8:1]/6h[8:1],,,4h[8:1]/6h[8:1],,,4-1[8:1]/6-1[8:1],,,,
{8},,
{16}2,,3h[8:1]/7h[8:1],,,3h[8:1]/7h[8:1],,,3qq1[8:1]/7qq5[8:1],,,,
{8},,
{8}2,3-5[8:1],5,7,,8>3[8:1],2,4,,5<3[8:3],7,8,,,5,,
{16}6,,5h[8:1]/7h[8:1],,,5h[8:1]/7h[8:1],,,5-1[8:1]/7-3[8:1],,,,
{8},,
{16}4,,2h[8:1]/5h[8:1],,,2h[8:1]/5h[8:1],,,2>5[8:1]/5<8[8:1],,,,
{8},,1,2-4[8:1],4,6,,7,
{16}3,5,4,,
{8}6h[8:2],,5h[8:2],,4,3,2,
{16}7,1,
{8}8b-3[8:1],,2/8-5[8:1],,6/8,
{16}7,4,,2,5,,
{8}1-4[8:1]/4,8,5-2[8:1],6,
{16}8,8,,7,7-5[8:1],,6/8,,
{8}7,8-4[8:1],1,8,
{16}2-5[8:1],,,1,2,,8,,
{8}5/7h[8:1],1,2h[8:1]/4,8,
{16}5,7,,2,4,,5,,
{8}1-5[8:1]/7,2,3,4,5/6,
{16}7,8,,2,1,,3/8-4[8:1],,7,,5<8[8:1],,,,1,1,,2,2,,3/8,,
{4}4>8[8:2]/7,8<4[8:2],4>8[8:2],8,
{8},5-8[8:1],5,,
{16}3,3,,2,2,,1,,
{8}1b-6[8:1]/8,,1-4[8:1]/7,,1/3,
{16}2,5,,7,4,,
{8}5/8<5[8:1],1,4<7[8:1],3,
{16}1,1,,2,2-6[8:1],,1/3,,
{8}2,1-5[8:1],8,1,7-4[8:1],
{16},8,7,,1,,
{8}2/4-1[8:1],8,7,,
{16}5,2,,7,4,,3,,
{8}1-4[8:1]/5-8[8:1],,1/5,,4/8,,7-3[8:1],6,,5,4-8[8:1],,1,2,
{16}3,7,4,6,
{8}5-2[8:1],,5,8-5[8:1],,8,1,2,
{16}3/4,3,,2/4,,6,6,,5/7,,4/8,,1/3,,2,8,3,
{16}4h[8:1]/7h[8:1],,,5h[8:1]/6h[8:1],,,2h[8:1]/5h[8:1],,,3h[8:1]/4h[8:1],,,1h[8:1]/8h[8:1],,,
{16}2b/7b,,3,4,3,,6,5,6,,2,4,2,,7,5,7,,2,3,2,,7,6,7,,2,1,2,,7,8,7,,3,1,3,,6,8,6,,4,5,3,,5,4,6,,3,4,3,,6,5,6,,4,5,4,,5,4,5,5,
{16}3,4,2,2,6,5,7,7,2,1,3,3,7,8,6,6,2,4,3,3,7,5,6,6,4,5,3,3,5,4,6,6,1,8,2,2,8,1,7,7,2,6,4,4,5,3,7,7,1,8,2,7,3,6,4,5,3,7,1h[8:1],,,,
{16}2,4,6,5,7,2,1,3,6,5,7,2,1,3,6,5,7,2,1,3,6,5,7,2,1,3,6,5,7>5[8:8],
E
