&title=Singularity
&artist=ETIA.
&des=Amethyst.
&first=0
&lv_5=14+
&inote_5=(175){1},,
{8}E2,B4/E4h[8:5],,E6,B8/E8h[4:1],,Cf,,
6,5,4,6,5,4,6h[4:1],,3,4,5,3,4,5,3h[4:1],,
7x,6,5,4x/6,5,4,3/6xh[4:1],,2,3x/5,4,5,4/6x,3,2xh[4:1]/5,,
8b,,1/7,{16},7,{8}1,8,1/7,1,8b,1,8/2,{16},2,{8}8,1,8/2,8,
{16}1b,8,1,8,1,8,1,8,1b,8,1,8,1,8,1,8,{32}2b,3,4,5,6,7,8,1,2,3,4,5,6,7,8,1,2,3,4,5,6,7,8,1,{4}2/Cf,
{16}3,4,3,4,2,5,3,4,3,4,2,5,3,4,2,4,3,3,,2h[16:3]/8h[16:3],,,,,2,3,4,5,1,2,3,4,
2,5,2,5,3,4,2,5,2,5,3,4,2,5,3,4,1q5[8:1],1,,8h[16:3],,,,,7,7,5,5,6,6,4,,
6,5,6,5,7,4,6,5,6,5,7,4,6,5,7,5,6,6,,7h[16:3]/1h[16:3],,,,,7,6,5,4,8,7,6,5,
7,4,7,4,6,5,7,4,7,4,6,5,7,4,6,5,8p4[8:1],8,,1h[16:3],,,,,2,2,4,4,3,3,5,,
{8}2b-5[8:1],4,2,7,8V63[4:1],5,8,2,{16}1,1,,2h[16:3]/8h[16:3],,,,,3,4,4,,6,5,5,,
{8}7b-4[8:1],5,7,2,1V36[4:1],4,1,7,{16}8,8,,7h[16:3]/1h[16:3],,,,,6,5,5,,3,4,4,,
{8}2b<7[8:1]/6h[4:1],,,,4/6,3,2/4,5b<8[8:1]/3h[8:3],,,,1/3,8,1/7,6b/2h[4:1],,
{16}5,3,5,3,6,3,6,3,7,3,7,3,8,3,8,3,{32}8b/4x,7,6,5,4,3,2,1,8,7,6,5,4,3,2,1,8,7,6,5,4,3,2,1,8-4[8:1],7,6,5,4,3,2,1,
{4}8b<1[4:13]/Cf,,,,,,,{8},E2,,,E3,,,E4,,,E6,,,E7,,,E8,,
{4}1p8<1[4:13],,,,,,,{8},E2,,,E3,,,E4,,,E6,,,E7,,,E8,,
1,,3h[4:1],,8,,6h[8:3],5h[8:3],,,,,7,8,1,2h[8:9],E7,,B5,,B8/E8,,E4,E5,,E7,E6,,E8/B8,,E5,E6,
1h[4:1],,,,2,4,6,7h[8:3],,,,5h[2:1],,6h[8:3],,,8,,B6,,B4,,E3,7,1b,3,4,6,5/7,5,3/4,5,
{4}6b/E4,6/E3,6/E2,6/E1,7/E5,7/E4,7/E3,7/E2,{8}3x/E6,,E7,3x,E8,,E1/3x,,E5,2x,E6,,E7/2x,,E8/2x,,
{8}1b/8b,1,1/7,{16}1,7,{8}1,1/8,1/7,1,1b/8b,8,2/8,{16}8,2,{8}8b,1/8,2/8,8,
{16}1b,8,1,8,2b,8,1,8,3b,8,1,8,{32}4b,5,6,7,8,1,2,3,{4}4h[2:1]/8h[2:1],,{48},E4/E8,B3/B7,B2/B6,E2/E6,,{8},{4}2x-7b[8:1]/6x-3b[8:1],
2b/6b,{16}1/5,,,3/4,,5/6,,,{4}4h[4:1]/8h[8:1],{16}7,5,,5,{8}4,1/2,{16},4/6,{8}4/6,7-4-7b[4:1]/8-4[8:1],1/6,
{4}7b/8b,{16}1,,,3/4,,5/6,,,{4}4h[8:1]/8h[8:1],{8}5/7,4/5,2/4,{16}7,6/8,,3,{8}2/4,{16}1-4b[8:1]/5-8b[8:1],1/5,1/5,1/5,
{4}1b/5b,{16}2/6,,,3/4,,5/6,,,{4}4h[8:1]/8h[4:1],{16}2x-4[12:1],2x,,2x,{8}1,{16},7,,5/6,{8}5/6,1/8,{24}2,3,4,
{8}5/7,4/5,2/4,{16}7,6/8,,3,{8}2/4,{32}1,5,1,5,{16}1,5,{4}Ch[8:1],B1h[8:1]/B5h[8:1],A1h[8:1]/A5h[8:1],{8}3-6b[8:1]/7-2b[8:1],2/6,
{4}7b/3b,{16}8/4,,,2/3,,6/7,,,{4}5h[4:1]/1h[8:1],{16}2,4,,7,{8}5,1/6,{16},5/3,{8}5/3,2-5-2b[4:1]/1-5[8:1],8/3,
{4}2b/1b,{16}1,,,6/7,,2/3,,,{4}4h[8:1]/8h[8:1],{8}4/2,5/4,7/5,{16}2,3/1,,6,{8}7/5,{16}8-5b[8:1]/4-1b[8:1],8/4,8/4,8/4,
{4}8b/4b,{16}7/3,,,6/5,,4/3,,,2/6,2/6,2/6,2/6,E3/E7,B3/B7,,5x/1x,{8}1,{16},7/6,,3/2,,,{32}8,4,8,4,{16}8,4,
7,5,7,5,6,4,6,4,5,3,5,3,{24}4,1,4,1,4,1,{8}E5,E7h[8:5]/B7h[8:5],,E1,B3h[4:1]/E3h[4:1],,Cf,,
{16}2,1,3,8,4,7,2,1,3,8,4,7,2,1,3,8,1,1,,2h[16:3]/8h[16:3],,,,,7,5,6-8[8:1],3,5,4,6,,
3,4,3,4,2,5,4,6,5,6,4,7,2,5,3,4,1,1,,8,1h[8:1]/7h[8:1],,,,2,1,4-2[8:1],5,2,1,4,,
7,8,6,1,5,2,7,8,6,1,5,2,7,8,6,1,8,8,,7h[16:3]/1h[16:3],,,,,2,4,3-1[8:1],6,4,5,3,,
6,5,6,5,7,4,5,3,4,3,5,2,7,4,6,5,8,8,,1,8h[8:1]/2h[8:1],,,,7,8,5-7[8:1],4,7,8,5,,
{8}2b>5[8:1],4,2,7,8-3[8:1],3-6[8:1],8,2,{16}1,1,,2/8,2h[8:1]/8h[8:1],,,,6,5,7,3,4,2,6,,
{8}7b<4[8:1],5,7,2,1-6[8:1],6-3[8:1],1,7,{16}8,8,,7/1,7h[8:1]/1h[8:1],,,,2,4,3,7,5,6,3,,
{1}2bpp5b[2:1]/6bpp1b[2:1],{8}3bh[4:1]/7bh[4:1],,,1b-4b[8:1]/5b-8b[8:1],,1b/5b,,,
{16}8b,5,7,4,6,3,5,2,7b,4,6,3,5,2,8b,1,{32}7,6,5,4,3,2,1,8,7,6,5,4,3,2,1,8,1,2,3,4,5,6,7,8,1,2,3,4,5,6,7,8,
{1}1bw5b[4:5]/Cf/B3/B7,,{16}7x,5,6,4,5,4,7x,5,6,4,5,4,7xh[4:1],,,,2,4,3x,5,4,5,2,4,3x,5,4,5,2xh[4:1],,,,
{8}8b,8,1/7,{16}1,7,{8}1,8,1/7,1,8b,1,8/2,{16}8,2,{8}8,1,8/2,8,
{16}1b,8,1,8,1,8,1,8,1b,8,1,8,1,8,1,8,E2,E3,E4,E8,E7,E6,B2,B3,B4,B7,B6,B5,A2,A7,A3,A6,
