&title=请不要带我走。
&artist=奥莉安多幻想曲
&first=-0.024
&des=
&des_5=DarkForest
&lv_5=13+
&inote_5=(97){4},{16},,,,,8/1,7,1/8,{8}2,4h[8:1],
8b,{24}6,5,7,{8}5,{24}3,4,2,{8}4,{24}6,5,7,{8}5,4-1-6[4:1],
5/2,4/6-3[8:1],8,7,6,{16}5/4,3/6,{8}5/4,1h[8:1],
8b,{24}2,1,2,{8}1,{24}7,8,7,{8}8,{24}2,1,2,{8}1,7-4-1[4:1],
6/3,7/1-6[8:1],2,3,4,{16}4/3,2,{8}1,6/5,
2/1,{24}8x,7,6,{8}5,{24}1x,2,3,{8}4,{16}5/6,7,{8}8,3/4,
7/8,{24}1x,2,3,{8}4,{24}8x,7,6,{8}5,1/2,3/8,7/4,
6b/5h[16:3],{16}7,8,{8}1h[4:1],{16}4,3,{8}2h,{16}7-1[16:1],6,{8}5/4-1[16:1],3/7-5[16:1],
4,7,3s7[8:1]/6z2[8:1],5/4,{4}3/6,{16}8-4[8:1],1,7,2h[4:1],
{4}8,{8}3-8[8:1],4/7,6-3[8:1],{16}5,5,{8}6/4-8[8:1],2h[8:1],
{16},,2>5[8:1],1,{8}1,8h[8:1],{16},,,4,5-1[16:1],2,6,3,
{8}5,{16}3<6[8:1],8,{8}1,3/7>2[8:1],{16},,7-4[16:1],3,{8}3,{16}7-3[16:1],2,
{8}2,{16}7-2[16:1],1,{4}1h[8:3],8h[8:1],{16}5/4,3,2/8,7,
{32}6,5,6,5,7,4,7,4,8,3,8,3,{16}1,1,{32}3,4,3,4,2,5,2,5,1,6,1,6,{16}8,8,
{8}7-4[8:1]/1-4[8:1],8,{4}7<1[4:1]/1>7[4:1],{8},,,8h[16:1],
{32}1,8,1,8,2,7,2,7,1,8,2,7,{8}1,{32}5,4,5,4,6,3,6,3,5,4,6,3,5,4,,,{8}3-7[32:3]/7-3[32:3],
5-1[8:1]/1-5[8:1],,,,4,8/2,5,
7/1,{48}8x,7,6,5/8,7,6,{8}5/8,{48}8x,7,6,5/8,7,6,{8}5/8,{48}8x,7,6,5/8,7,6,{8}5/8b,1,
1/8-4[8:1],7,8/1-5[8:1],2,1/8,6,1/2,3,
8/7,{48}1x,2,3,4/1,2,3,{8}4/1,{48}1x,2,3,4/1,2,3,{8}4/1,{48}1x,2,3,4/1,2,3,{8}1b/4,8,
8/1-5[8:1],2,1/8-4[8:1],7,1/8,2,3/5,7,
6/4,{48}8,7,6,5/8,7,6,{8}5/8,{48}8,7,6,5/8,7,6,{8}5/8b,2/1,3/4,5/6,
7/8,{48}1,2,3,4/1,2,3,{8}4/1,{48}1,2,3,4/1,2,3,{8}1b/4,8/7,6/5,4/3,
2/1,{48}8,7,6,5/8,7,6,{8}5/8,{48}8,7,6,5/8,7,6,{8}8b/5,{16}2/1-6[8:1],3,{8}4-1[8:1],1/8,
4,7,5<8[8:1]/4>1[8:1],3/6,{32}5/4,E6/E4,E7/E3,E8/E2,,,,,{8}6/2,4/8,
{4}1b/5h[2:1],{8},,,,3,2,
{1}1h[4:3]/6qq1<8[8:5],
7h[4:3]/3pp8>1[8:5],
{8}6-8-4[2:1],3-1-5[8:3],,,,,,8,
8h[4:7],{16}B1,B2,{8}B3,B5,B7,E3,E4,E5,
E7,{16}E6,B5,{8}B4,E3,{4}E2,{8}1,1,
1h[8:7],E1,E8,E7,E6,{16}B4,B3,{8}B2,B8,
Cfh[2:1],B1/B5,B2/B6,B7/B3,{4}B8/B4,{16}6,1,4p1[8:3],3,
{8}7h[4:1],,,5,6,7,8,4h[16:5],
7,{16}6,5h[16:5],2,3,{8}4h[8:1],{16},,,3,7,1,5q8[8:3],4h[16:5],
{8}6,,,3,2,1,2h[4:1],{16}7,6,
{8}5h[4:1],{16}3,2,{8}1h[8:3],{16}6,7,{4}8h[8:1],{16}8/1,7,6/3,4,
{32}5,4,6,3,7,2,8,1,8,1,8,1,{16}7,7,{32}4,5,3,6,2,7,1,8,1,8,1,8,{16}2,2,
{4}3-5[8:1]/6-4[8:1],3>5[4:1]/6<4[4:1],{8},,,1,
{32}8,1,7,2,6,3,5,4,6,3,7,2,{8}8,{32}4,5,3,6,2,7,1,8,2,7,3,6,4,5,,,{8}2-6[32:3]/6-2[32:3],
8-4[8:1]/4-8[8:1],,,,,7b/2b,5/4,
2/7,{48}8,7,6,5/8,7,6,{8}5/8,{48}8,7,6,5/8,7,6,{8}5/8,{48}8,7,6,5/8,7,6,{8}8b/5,1,
2/7-4[8:1],6,7/2-5[8:1],3,7/2,6,2/1,3,
8/7,{48}1,2,3,1/4,2,3,{8}1/4,{48}1,2,3,1/4,2,3,{8}1/4,{48}1,2,3,1/4,2,3,{8}1b/4,8,
7/2-5[8:1],3,2/7-4[8:1],6,7/2,3,2/5,6,
7/4,{48}8,7,6,8/5,7,6,{8}8/5,{48}8,7,6,8/5,7,6,{8}8b/5,1/2,3/4,5/6,
7/8,{48}1,2,3,1/4,2,3,{8}1/4,{48}1,2,3,1/4,2,3,{8}1b/4,8/7,6/5,4/3,
2/1,{48}8,7,6,8/5,7,6,{8}8/5,{48}8,7,6,8/5,7,6,{8}8b/5,{16}2/1,8/3,{8}7/4,1/8,
{4}1b-4[8:1]*>4[8:1],1b-6[8:1]*<6[8:1],1,{8}7/1,3/5,
1b/7h[8:5],{16}4,3,{8}2,{16}3,2,{8}1,{16}2,1,{8}8,7/2h[8:17],
{16},A1,A8,E1,{12}B8,B7,B6,{6}B5,E5,{24},{8}5h[8:9],
E
