&title=灰冠り
&artist=Sohbana
&first=0
&des=正信士
&lv_5=13
&inote_5=(185)
{1}
,
{16}
4,,4,,5h[4:1],,,,4,,4h[4:1],,,,5,,
4,,5,,3h[8:3],,4,,5,,6,,4h[8:3],,5,,
6,,7,,8<5[8:1],,,,4,,3,,2/4V68[8:1],,,,
,,,,1^4[8:1],,,,18,,7,,6/5V31[8:1],,,,
,,,,8h[4:1],,,,6,,6,,57,,4,,
53,,2,,1-5[4:1],,,,5qq3[4:1],,,,6,,,,
7,,,,8<5[8:1],,,,4,,3,,2/4V68[8:1],,,,
,,,,1^4[8:1],,,,18,,7,,6/5V31[8:1],,,,
,,,,8h[4:1],,,,1,,2,,3/4-7[8:1],,,,
1>5[4:1],,,,5<1[4:1],,,,1>5[4:1],,,,5,,,,
,,,,8<5[8:1],,,,4,,3,,2/4V68[8:1],,,,
,,,,1^4[8:1],,,,18,,7,,6/5V31[8:1],,,,
,,,,8h[4:1],,,,6,,6,,57,,4,,
53,,2,,1>5[4:1],,,,5qq4[4:1],,,,6,,,,
7,,,,8<5[8:1],,,,4,,3,,2/4V68[8:1],,,,
,,,,1^6[8:1],,,,12,,3,,4/5V71[8:1],,,,
,,,,2h[4:1],,,,3,,4,,5/6-1[8:1],,,,
67,,,,8-4[8:1],,,,8/1^4[4:1]*^6[4:1],,,,1b,,,,
,,,,7h[4:1]/8,,,,6,,6,,4/5h[4:1],,,,
3,,,,2h[4:1]/1,,,,3,,3,,5/4h[4:1],,,,
6,,,,7qq1[3:1],,,,,,,,3qq5[3:1],,,,
,,,,6z2[16:9],,,,,,,,,,,,
,,,,2h[4:1]/1,,,,3,,3,,5/4h[4:1],,,,
6,,,,7h[4:1]/8,,,,6,,6,,4/5h[4:1],,,,
3,,,,2qq7[3:1],,,,,,,,6qq3[3:1],,,,
,,,,1s5[16:9],,,,,,,,,,,,
,,,,7,,8,,6-1[8:1],,5,,,,,,
2,,1,,4-8[8:1],,5,,,,7,,5,,6,,
4,,5,,3h[4:1],,,,5h[4:1],,,,6h[4:1],,,,
8h[4:1],,,,1V74[3:1],,,,,,6,,6,,,,
5,,4,,3,,4,,2-5[8:1],,1,,,,,,
6,,5,,7-4[8:1],,8,,,,3,,5,,4,,
6,,5,,7h[4:1],,,,1h[4:1],,,,3h[4:1],,,,
5h[4:1],,,,8h[2:1],,,,,,,,1bqq7[8:1]*pp3[8:1],,,,
,,,,8^5[8:1],,,,4,,3,,2h[4:1]/4V68[8:1],,,,
4,,,,1^4[8:1],,,,18,,7,,5V31[8:1]/6h[4:1],,,,
5,,,,7h[4:1],,,,5,,5,,46,,3,,
25,,6,,4-1[8:1]/7^4[4:1],,,,7/4V27[3:1],,,,,,,,
,,3,,3^8[8:1]/6,,,,7^4[8:1],,7,,3^8[8:1],,3,,
6-1[8:1],,6,,2-5[8:1],,,,7-4[8:1],,7,,3-8[8:1],,3,,
6-1[8:1],,6,,2-4[8:1],,,,2-5[8:1]/6,,,,2-6[8:1]/7,,,,
8pp5[3:1]/2,,,,,,,,,,,,1bw5[8:1],,,,
,,,,8^5[8:1],,,,4,,3,,2h[4:1]/4V68[8:1],,,,
4,,,,1^6[8:1],,,,21,,3,,5V71[8:1]/4h[4:1],,,,
5,,,,2h[4:1],,,,3,,4,,15,,2,,
36,,7,,4-1[8:1]/8,,,,4pp6[8:1]/2,,,,47,,,,
8h[8:1],,1h[8:1],,7^4[8:1],,,,3^8[8:1],,3,,7^4[8:1],,7,,
2-5[8:1],,2,,6-1[8:1],,,,3-8[8:1],,3,,7-4[8:1],,7,,
2-5[4:1],,2,,5-8[4:1],,,,8-3[4:1],,,,3-6[4:1],,,,
6<5[8:7],,,,,,,,,,,,,,5-1[16:6],,
{24},
{16},,,,,,,,,8b/2b,7/3h[16:27],,,2,,
2,,2,,2,,2,,2,,2,,2,,2,,
2,,2,,2,,2,,3,,1h[1:1],,,,2,,
2,,2,,2,,2,,2,,2,,34,,18,,
56,,7b/8b^3[8:1]*^5[8:1],,,,,,,,4-7[8:1],,,,4/6h[8:2],,
,,8,,1,,72,,72,,8-3[8:1],,,,8/2h[4:1],,
,,4,,5,,36,,36,,7^4[8:1],,,,8-4[8:1],,
,,1-5[8:1],,,,2>6[4:1],,,,6b<2[4:1],,,,2b>6[4:1],,
,,6b<2[4:1],,,,,,,,5h[4:1],,,,4,,
4,,5,,,,45,,,,5h[4:1],,,,4,,
4,,5,,,,45,,,,5h[4:1],,,,4,,
3,,6,,4,,5,,3,,6^3[4:1],,,,3<7[3:1],,
,,,,,,,,,,6-3[8:1],,,,2h[4:1],,
,,4,,3,,5,,4,,6v3[8:1],,,,2h[4:1],,
,,4,,3,,5,,4,,6q3[8:1],,,,2h[4:1],,
,,4,,3,,5,,4,,6,,6,,46,,
46,,7,3,7,3,7,3,7,3,8b^5[8:1],,,,4,,
3,,2h[4:1]/4V68[8:1],,,,4,,,,1^4[8:1],,,,18,,
7,,5V31[8:1]/6h[4:1],,,,5,,,,8<4[8:1],,,,38,,
2,,3V57[8:1]/1h[4:1],,,,3,,,,1>5[8:1],,,,61,,
7,,8h[4:1]/6V42[8:1],,,,6,,,,1>5[4:1],,,,1/5V38[4:1],,
6,,8V25[4:1],,,,7b,,,,8<4[4:1],,,,8/4V61[4:1],,
3,,1V74[4:1],,,,2b,,,,2V47[4:1],,,,7V52[4:1],,
,,2V48[4:1],,,,8V61[4:1],,,,1>6[4:1],,,,6<5[2:1],,
,,,,,,,,,,8<5[8:1],,,,4,,3,,2/4V68[8:1],,,,
4,,,,1^4[8:1],,,,18,,7,,6/5V31[8:1],,,,
5,,,,8h[4:1],,,,6,,6,,57,,4,,
53,,2,,1-5[4:1],,,,5v3[4:1],,,,6,,,,
7,,,,8<5[8:1],,,,4,,3,,2/4V68[8:1],,,,
4,,,,1^4[8:1],,,,18,,7,,6/5V31[8:1],,,,
5,,,,8h[4:1],,,,1,,2,,3/4-7[8:1],,,,
1V35[4:1],,,,5bV71[4:1],,,,1bV35[4:1],,,,5b,,,,
,,,,7^4[8:1],,,,2,,1,,8v3[8:1],,,,
7b/8b,,,,7^4[8:1],,,,2,,1,,8v3[8:1],,,,
7b/8b,,,,6h[4:1],,,,5,,4,,23,,1,,
78,,6,,4-1[8:1]/5,,,,5q2[8:1],,,,4pp6[8:1],,,,
,,,,7^4[8:1],,,,8v3[8:1],,8,,7-4[8:1],,,,
1-4[8:1],,,,8-5[8:1],,,,2^5[8:1],,2,,1v6[8:1],,,,
2,,,,7-4[8:1]/8,,,,3,,,,1/2-5[8:1],,,,
6,,,,7V58[2:1]/8,,,,4,,,,8-4[4:1]*>8[8:36],,,,
E
