&title=世界中の青空をあつめて
&artist=Poppin'Party
&first=0.05
&des=Hrayno
&des_5=Hrayno
&lv_5=13
&inote_5=(194){4},,,,{1}3h[4:7],
7h[4:3],
{2}6h[2:1],2h[2:1],
7-3[8:1],{8}2,5,5,7bx/1bx,
,,,4,4,6,3,2bx/8bx,
,6bx/4bx,,1bx/7bx,,3bx/5bx,,2bxh[8:3]/7bxh[8:3],
{16},,,,,,,,1,8,1,8,1,8,1,8,
{4}2bx>5[8:1],{8}7,7,{2}8-4[8:1],
{4}2-5[8:1],{8}7,6-1[8:1],,4,{4}3,
2bx/8bx,{8}5,6bx/4bx,,1bx/7bx,,4bx/3bx,
{16},,4,5,4,5,{8}2h[4:1],,8,{4}7/1,
{8}6h[8:1],4h[8:1],5h[8:1],3h[8:1],{4}4h[4:1],2,
1>4[8:1],{8}5,6v1[8:1],,4,{4}3,
{8}2h[8:1],8h[8:1],1h[8:1],7h[8:1],2,5,5,3bx/6bx,
,8bx/4bx,,2bx/5bx,,7bx/4bx,,,{4}3h[4:3],
E5,B6,E8,
7h[4:3],E1,B2,E4,
4x>1-5[2:1],E6,B7,E1,
8x<5-1[2:1],E2,B3,E5,
{2}3h[8:3]/8xh[4:1],{8}1,2,{4}8/3,
{2}7h[8:3]/4xh[4:1],{8}5,6,{4}4/7,
{2}8xh[4:1]/2-4-1-5[2:1],7h[4:1],
4xh[4:1]/6-2-8-5[2:1],3h[4:1],
{8}3b/7b,4,6,5,{4}7/4,{8}7/1,6,
3,5,{4}4/7,{8}1/8,1,{4}2/6,
{8}7/3,8,2,1,{4}3/8,{8}3/5,2,
7,1,{4}8/3,{8}5/4,5,{4}6/2,
3h[4:1],{8}5,6,3,3,{4}2/5,
6h[4:1],{8}4,3,6,6,{4}7/4,
3-8[8:1],B6,7-4[8:1],B2,
1-5[8:1],B7,{8}4h[16:1]/6h[16:1],4h[16:1]/6h[16:1],{4}3b/7b,
{8}2/8,2-4[8:1]/8-6[8:1],,8b/2b,,,3,4,
{4}2h[8:5],{8}6,6,,B6/B5,,,7/1,
7-5[8:1]/1-3[8:1],,1b/7b,,,{4}5h[1:1],
E5,B6,B3,B7,
{8}2/8,2-5[8:1]/8-4[8:1],,8b/2b,,,6,5,
{4}7h[8:5],{8}3,3,,B3/B4,,,7/1,
7-4[8:1]/1-5[8:1],,1b/7b,,,{4}4h[1:1],
{1}8-6>5v3>2-8[8:5],
{4}4-1[4:1],7,6-1[4:1],2,
3<6[4:1],8,7>2[4:1],5,
{2}4h[2:1],Ch[2:1],
{8}1,1w5b[8:1],,1b,,,6,6,
{4}3b/7b-4[8:1],{8}2,1V35b[4:1],,6,6,7,
{4}4x-1[8:1],{8}8,7V53b[4:1],,1,1,2,
{4}2>5[4:1],5<8[4:1],8>3[4:1],3qq7[8:3],
{8}5h[4:1],,,5,8,6,1,7,
{4}2-5[8:1],{8}6,7p3[8:1],,8,{4}1pp4[8:3],
{8}5,5,6,6h[4:1],,5h[4:1],,8,
{4}8-6>5b[4:1],5v3b[4:1],3>2-8b[4:1],8<2[16:5],
{2}4h[8:3],{16}4,8,4,8,3,7,3,7,
{4}1b>4[8:1],{8}5,6-4-7b[4:1],,3,3,2,
{4}8x-4[8:1],{8}2,1-7-3b[4:1],,5,5,6,
{4}6<1[4:1],1>4[4:1],4<7[4:1],7qq3[8:3],
{8}1h[4:1],,,2,4,3,5,4,
{4}6-1[8:1],{8}4,3-7[8:1],,4,{4}5pp8[8:3],
{8}1,1,2,2h[4:1],,1h[4:1],,4,
{4}4>3-1b[4:1],1-7<6b[4:1],6v4b[4:1],4,
{8}5,5,{16}3,4,{8}3,2/5,6,{4}1b/7b,
{2}2xh[4:1]/6xh[4:1],4xh[4:1]/8xh[4:1],
{16}1/7,,,7/1,,,{8}1/7,{16}2,6,2,6,3,5,3,5,
{4}4b>1[8:1],6pp5b[8:3],{8}2,2,3,3h[4:1],
,4,{4}5/2-8-3[4:1],{8}7,7,6,6,
4-8[8:1],5-7[8:1],4,5,,1,1h[4:1],{16}7x,6x,
{8}5x,2,4,3,{4}5-1[8:1],5/3,
{8}2,1,3/8,7,4,4,3/6,7bxh[4:1]/2bxh[4:1],
,,{4}1-5[8:1]/8-6[8:1],1-3[8:1]/8-4[8:1],8/1,
{8}6,5,4/7,3,1/6,5,3/7,8h[8:7],
,E6,E5,E4,{4}E3,1b-5b[8:1],
{32}1b>8[2:3],B1,C,B5,{4},,,{16},,{1}Ch[4:3],
8-6>5v3>2-8[2:3],
,4h[1:1],
6h[1:1],
2h[1:1],
8h[1:1],
{2}1>1[2:3],C,
,C,
5-7-1-3-5[2:3],C,
,C,
{4}3h[1:1],4,5,6,
7h[1:1],8,1,2,
3h[4:1],5h[4:1],4h[4:1],6h[4:1],
{8}3,7,1,5,2,6,4,8,
2,1,{4}3/8,{8}7,8,{4}1/6,
{8}3,4,{4}2/5,{8}6,5,{4}4/7,
{8}3x/8x,{16}2,1,{8}2,3x/8x,{16}2,1,{8}2,{4}3x/8x,
{8}6x/1x,{16}7,8,{8}7,6x/1x,{16}7,8,{8}7,{4}6x/1x,
{8}4/5,5-7[8:1]/4-2[8:1],,4b-8[8:1]/5b-1[8:1],,5b<4[2:1]/4b>5[2:1],,5b/4b,
,,,,,,2,2,
{4}3b/7b-4[8:1],{8}1,2-8-3b[4:1],,5,5,6,
{4}4x-8[8:1],{8}5,6-1-5b[4:1],,2,2,3,
{4}3<6[4:1],6<1[4:1],1>4[4:1],4pp1[8:3],
{8}6h[4:1],,,6,8,7,1,8,
{4}2-5[8:1],{8}2/7,8p4[8:1],,2/8,{4}1>3[8:1]*>4[16:3]*>5[4:1]*>6[16:5],
{8}7,7,8,8h[4:1],,5h[4:1],,8,
{4}8-6>5b[4:1],5v3b[4:1],3>2-8b[4:1],8<2[16:5],
{2}4h[8:3],{16}4,8,4,8,3,7,3,7,
{4}1b>4[8:1],{8}6,5-7-1b[4:1],,4,4,3,
{4}8x-4[8:1],{8}1,2-5-3b[4:1],,7,7,6,
{4}6>3[4:1],3>8[4:1],8<5[4:1],5qq8[8:3],
{8}3h[4:1],,,3,1,2,8,1,
{4}7-4[8:1],{8}7/2,1q5[8:1],,1/8,{4}7qq4[8:3],
{8}3,3,2,2h[4:1],,4h[4:1],,1,
{4}1-3<4b[4:1],4v6b[4:1],6<7-1b[4:1],1,
{8}5,5,{16}3,4,{8}3,2/6,6/2,{4}4b/8b,
{2}7xh[4:1]/5xh[4:1],3xh[4:1]/1xh[4:1],
{16}2/8,,,2/8,,,{8}8/2,{16}3,7,4,6,2,8,3,7,
{4}1b-3[8:1],5/1-7[8:1],5/1-3[8:1],5/1,
{8}6,5,{4}4/7,{8}2,1,{4}3/8,
2>6[4:1],6V42[4:1],{8}8,8,{4}1-6[8:1],
1-4[8:1],1<6[8:1],1>4[8:1],1,
8-6[8:1],4/8-2[8:1],4/8-6[8:1],4/8,
{8}3,4,{4}5/2,{8}7,8,{4}6/1,
7V53[4:1],3<7[4:1],{8}1,1,{4}8-3[8:1],
8-5[8:1],8>3[8:1],8<5[8:1],8,
1-3[8:1],5/1-7[8:1],{8}6/1-3[8:1],6,{4}5/1,
{16}6,5,{8}6,{4}4/7,{16}2,1,{8}2,{4}3/8,
2q6[4:1],6>2[4:1],{8}8,8,{4}1-6[8:1],
1-4[8:1],1<6[8:1],1>4[8:1],1,
8-6[8:1],4/8-2[8:1],{8}3/8-6[8:1],3,{4}4/8,
{16}3,4,{8}3,{4}5/2,{16}7,8,{8}7,{4}6/1,
8-4[8:1]/7-4[8:1],8/7,{8}3,3,5,5,
6x/2x,{16}1,8,{8}1,3b/7b,,3/6,2/5,Cf/1b-3<4v6<7-1[8:31],
E
