&title=ずうっといっしょ
&artist=キタニタツヤ
&first=0.546
&des=Kurage
&wholebpm=135.000
&lv_5=13+
&des_5=
&inote_5=(135)
{1},{4},,,3qq5[4:3],
{1}8z4[4:2],
{8}36,{16}2,1,,{16}7,{8}5,{4}4qq2[8:1]/6v5[8:1],,
{16}7b/4b,,6,5h[8:1],,8,,4h[16:3]/2,,,8,,6,1,,,
{16}3h[8:1]/5,,4,2,,71,,6qq7[16:5],,,8,,8,,,,
{16}1,,3,4h[8:1],,1,,5h[16:3]/7,,,1,,3,8,,,
{16}6h[8:1]/4h[8:1],,,57,,46,,3,4-8[8:1],2,4,1,{4},
{16}6b/1b,,7,8h[8:1],,5,,1h[16:3]/3,,,5,,7,4,,,
{16}2h[8:1]/8,,1,3,,64,,7pp6[16:5],,,5,,5,,,,
{16}4,,2,1h[8:1],,4,,8h[16:3]/6,,,4,,2,5,,,
{16}6h[8:1]/4h[8:1],,,57,,46,,3,5,2,8,1,8-6[8:1],2,8-4[8:1],3,
{8},,,{16}6,6,,4,7,,35,,2,,
{16}46,,3,4,,4,2,,63,,1,8,{8}1-3[8:1],1-5[8:1],
{8},,,{16}3,3,,5,2,,46,,7,,
{16}35,,6,5,,5,7,,38,,2,6,1,,7,4,
{4}5-8[8:1],7-3[8:1],8-3[8:1],2-6[8:1],
{16}7h[16:3],,,5h[16:3],,,4,,{4}6-4[8:1]/3,{16}2,,2,,
{8}1>4[8:1],1,8,7,6h[8:1],{16}5,7,,3,,3,
{8}8<5[8:1],8,1,2,{8}4-8[8:1]/3q8[8:1],25,,,
{16}2b/5b,,3,4h[8:1],,6,,8h[16:3]/5,,,7,,2,4,,,
{16}6h[8:1]/3,,5,7,,28,,3pp2[16:5],,,1,,1,,,,
{16}8,,6,5h[8:1],,3,,1h[16:3]/4,,,2,,7,5,,,
{24}2,3,4,{16}5,,{24}7,6,5,{16}4,1b-5[8:1],{8},,,,
{8}46,7,35,{16}2,4,3,5,3,5,4,6,2,,
{16}35,,6,5,,5,7,,36,,8,1,{8}8-5[8:1],8-3[8:1],
{8},,,{16}7,5,6,4,6,4,5,3,,6,
{16}5,,3,4,,4,2,,61,,7,3,8,,2,5,
{4}4-1[8:1],2-6[8:1],1-6[8:1],7-3[8:1],
{16}2h[16:3],,,4h[16:3],,,5,,{4}3-5[8:1]/6,{16}8,,,7,
{16},7,5,6,4,,5,,43,,2,2h[8:1],,1,,3,
{16}7,4,8,5,6,5,7,,{8}36,{24}4,5,3,{8}4-1[8:1],28,
{4}6bz2[4:3],,3,,
{4}1z5[4:3],,6,,
{4}4z8[4:3],,1,,
{4}7-3[4:1],,4,{16}35,3b/5b,,2bV41[16:3]/6b,
{8},6b/2b,8,8,8,{16}3,3,6,4,{16},5bV37[16:3]/2b,
{16},,5b/2b,,{8},{24}8,1,2,{8}3,{16}5,5w1[8:1],4,7,,5b,
{1},
{16}35,3b/5b,,1b/6b,,,{24}4,5,3,{16}4,4b,,,{16}5-7[8:1]/1,5b/1b,{8},
{8}2b-4[8:1],8-4[8:1],2<7[8:1],8,2,5h[4:1],,6,
{16}48,,2,5,3-8[8:1]*-7[8:1],4,1,,3,,,,6,6,5,,
{8}47,5>2[8:1]/3,,58,6<1[8:1],{16},4,{8}6,2,
{16}34,,6,5,8-3[8:1]*-5[8:1],1,7,,{4}8b,6b/2b-4[8:1],
{8}8b-6[8:1],1-5[8:1],8>3[8:1],1,8,4h[4:1],,2,
{16}38,,6,3,5-1[8:1]*-2[8:1],4,7,,5,,,,6,6,4,,
{8}83,1<6[8:1]/7,,14,2>5[8:1],{16},8,{8}2,6,
{8}1b/8b,{16}3,2b/4b,,6,5b/7b,,{16}3,6,4,5,{32}1b-4[8:1],8,7,6,5,4,3,2,
{8}6b-3[8:1],8b-4[8:1],6b<1[8:1],8b,6,5h[4:1],,2,
{16}48,,6,1,7-4[8:1]*-3[8:1],8,5,,7,,,,1,1,7,,
{8}52,4<7[8:1]/6,,41,3qq1[8:1],{16},6,{8}3,4,
{16}25,,7,4,8,5,6,,35,,2,2,7-5[8:1],4,8,,
{8}1b-3[8:1],8-4[8:1],1<6[8:1],8,1,5h[4:1],,{16}7,5,
{4}1bpp3[8:1]*qq7[8:1],1bq5[8:1]*p5[8:1],1b,{16}37,3b/7b,,4b/5b,
{16},2,4,1b,6,5,1b,3,4,1b,7,5,1b,,28,2b/8b,
{16},7,5,8b,3,4,8b,6,5,8b,2,4,8b,,72,7b/2b,
{16},3,5,1b,7,5,1b,3,{8}8w4[8:1],3b>5[8:4]/5b<3[8:4],,,
{4},,
{16}2b/6b,,1,4,3,,47,,8,5,6,,35,,1,,
{16}2,4,3,6,5h[8:1],,7,5,6,3,4h[8:1],,{24}1,2,3,5,6,7,
{16}1b/8b,,2,4,3,4,8,,7,5,6,5,1,,28,,
{16}3b,7,5,7b,1,7,2b,8,4,8b,6,8,1,1,1,,
{16}2b/7b,,8,5,6,8,4,3,8,5,7,8,4,2,{24}8,7,6,
{16}53,,1,4,3,1,5,6,1,4,2,1,5,7,{24}1,2,3,
{16}4b/6b,,8,5,6,3,4h[8:1],,1,4,3,6,5h[8:1],,{24}1,8,7,
{16}6b/3b,,2,2b/1b,,7,7b/8b,,3,2b/4b,,6,5b/7b,,18,,
{32}1b/2b,3,4,5,{16},{32}8b/7b,6,5,4,{16},{32}1b/2b,3,4,5,
{32}8b,7,6,5,1b,2,3,4,7b,6,5,4,,,8b/1bs5[16:3]*v7[16:3],,
{1},
