&title=SUPER SEX DELIVERY 2 - ENTER THE CUM ZONE(Unfinish)
&artist=ReeK
&des=Bigwoof
&first=0
&lv_5=14+
&inote_5=(150){1},
{32}1bqq4[4:2],2/8,3/7,4/6,{8}5,,,,,,,
{16}1x,,,8x,5,7,1x,4,2-7[8:1],7,5,6,{4}2,
{32}8bz4[4:2],7/1,6/2,5/3,{8}4,,,,,1p5[4:3]*q5[4:3],,
{1},
{32}1b,2qq5[2:1]/8pp5[2:1],3/7,4/6,{8}5,,,,,,,
{16}6x,5,7,3x,4,2,6x,5,8-5[8:1],3,4,1,{4}8,
{16}1b,8,1,8,1,8,2b,4,3,7b,5,6,2b,7,1,8,
{4}1bh[8:3],,5w1[16:1],{64}A5f/E6/D6/E5/D5,B5,C,B1,{16}A1,,,
{8},{16}3x,3,5,4,6,,B3,,6-1[16:1],6,,,6b,,
{8},{16}2x,2,5,3,6,,B2,,6pp7[8:1],6,,,6b,,
{8},{16}3x,3,5,4,6,,E3,,6-1[16:1],6,,,6b,,
{32}4b,3,2,,8b,7,6,,1,,1,,5,,5,,2b,3,4,,6b,7,8,,5,,5,,1,,1,,
{8},{16}4x,4,5,3,6,,B4,,6<1[16:1],6,,,6b/5b,,
{8},{16}3x,3,5,2,6,,B3,,6pp1[4:1],6,,,6b/5b,,
{8},{16}4x,4,5,3,6,,E4,,6/5,6/5,,,7b/5b,,
4xh[16:1]/8xh[16:5],,3,2,1xh[16:8],,7,6,{4}5xh[16:4],{48},2/6,3/7,{16}4/8,,,
{8}C,2,2,{32}2/D7,A6,D6,A5,{8}2,2,2,2/E8,
{32}2/E8,B7,B6,E6,{8}2,3/5,4/6,5/7h[8:3],6,5,4,
{32}3bx/6bx,2/5,{16}1h[32:5]/4h[32:5],,{32},,5x/2x,{16}6h[16:3]/3h[16:3],,,{32},7x/4x,{16}8h[16:3]/5h[16:3],,,{32},4x/7x,3h[16:3]/6h[16:5],{16},,,
{32}2,1h[16:1],,,5,4h[16:0],,,{16}1/3-6-8-5[4:1],1h[16:7]/3,,,{4},A5f/B5/E5/E6/D6,
{8}C,7,7,{16}7,{32}A4,E4,B3/7,B2,{16},{8}7,7,{32}7/A3,E3,A2,E2,
{8}7,7/D1,7,6,5,4/7,3/6,2/5,
{32}1bx/4,8,7,6,5,4,7bx,6,5,4,8bx,1,2,3,4,5,8bx,1,2,3,4,5,2bx,3,4>2<8<6>3-1-7-5-3[32:24]b,5,1bx,8,7,6,5,4,
{4}1bx/3bx,,{16}A1/B1,E8/D8,B6/A6,E5/D5,{4}A3/B3,
1-7[16:1]/4,1-3[16:1]/6,1-6[16:1]/4,1-4[16:1]/5,
1-7[16:1]/5,1-3[16:1]/6,1q5[8:1]*p5[8:1]/4,1b,
2-4[16:1],1-5[16:1]/2,1/8-6[16:1],1-3[16:1]/8,
1/8-4[16:1],7-5[16:1]/8,1qq4[4:1]/7pp4[4:1],1b/7b,
{8}A4/D4/D5,,1-4[16:1],8,1/6-3[16:1],7,8-4[16:1]/6,1,
8/6-2[16:1],5,6/3-8[16:1],4,3/5w1[16:1],6,{64}A5/E6/D6/E5/D5,B5,C,B1,{16}A1,,,
{8}3>8[16:1]/6,4,3/5-7-4[16:3],6,1-5[16:1]/5,2,1b-7-2-6-3-5[16:14]b,,
{4},,8-5[16:2],8b,
(150){4}1bx,(160){4}7,(165){4}2,(180){4}8,(200){4}1,(210){4}7b,(225){4}2,(240){4}8,
(265){4}1,(280){4}7,(295){4}2,(305){4}8,(330){4}1,(350){4}7b,(375){4}2,(385){4}8,
(395){4}1,(425){4}7,(445){4}2,(470){4}8,(495){4}1,(510){4}7b,(535){4}2,(555){4}8,
(575){4}1,(300){8}7,2,8,1,7b,2,8,1,7,2,8,1,
(150){16}7bh[32:1],8h[32:1],7h[32:1],8h[32:1],6h[32:1],1h[32:1],6h[32:1],1h[32:1],
5bh[32:1],2h[32:1],5h[32:1],2h[32:1],4h[32:1],3h[32:1],4h[32:1],3h[32:1],
5bh[32:1],4h[32:1],5h[32:1],4h[32:1],6h[32:1],3h[32:1],6h[32:1],3h[32:1],
7bhx[32:1],2hx[32:1],7hx[32:1],2hx[32:1],8hx[32:1],1hx[32:1],8hx[32:1],1hx[32:1],
{32}8,7,6,5,{8}4/1b,{32}1,2,3,4,{8}5/8b,{32}7,6,5,4,{8}3/8b,{32}2-6-4[8:3]*-6-8[8:3],3,4,5,{8}6b/1b,
{4}A2f/D2/D3,,{8}A8/D8/A7/B7,D1/E1/B1/E2/D2,A5/B5/B4/A4/B3/A3,,
{32}7b-4-6[16:3],8/6,1/5,2/4,{8}3h[8:1],7,2,{16}1-6[8:1],7,,8,{8}1>5[4:1],7x,
{16}1/5qq4[4:1],6,7,8,{4}1h[8:1],{16}1,1,,8/5,{8}8/5h[16:1],7b,
{4}4h[16:3]/6h[16:5],{32}3x,2,1,8,7bx,8,1,2,3,4,5,6,7,8,1,2,{16}4x,4x,5x,,
{16}1-5-1[4:1],,2,8,{8}1b,,,7h[8:1],6h[8:1],5,
{32}2b-5-1[4:1],1/3,8/4,7/5,{8}6h[8:1],2,7,{16}8-6-4[8:1],8,,2,{8}8-3-8[4:1],1,
8-5-3[4:1]/6x,7x,6x,7xh[8:1],,1/6,2/7,3/8,
{24}1x,2x,3x,4bh[8:1],,,8x,1x,2x,3bh[8:1],,,7x,8x,1x,2bh[8:1],,,6x,7x,8x,1bh[8:1],,,
{4}Chf[4:1],{32}B2,B3,B4,B5,{24}B6,B7,B8,{16}B1,B2,{8}B3,{4}B4/8w4[16:1],
{4}8b,{16}2>4[16:1],2,1,,2-5[16:1],8,,1,{8}2,8,
{16}2/7>3[16:3],6,5,4,{4}3,{16}4x/8,5,6,7,4w8[8:1]/8,1,2,3,
{4}4b,{24}6x,5,6x,5,6x,5,6bx,7,8,1,2,3,6b,7,8,1,2,3,
{16}4/5,,6,4,{8}5<5[4:1],3h[4:1],5,,{16}2x,2x,2x,,
{32}3h[8:1]/5,4,,2,1,8,7,6,{4}5/2b,{32}6h[8:1]/4,5,,7,8,1,2,3,{4}4/7b,
{32}3h[8:1]/5,4,,2,1,8,7,6,{4}5/2bh[8:1],{32}6h[8:1]/4,5,,7,8,1,2,3,{4}4/7bh[8:1],
{1}Cf/3>2-4-1-5-8-6[4:6]b,
Chf[4:3],
{16}2/8b,2,1,,7,1,5,3,8h[1:0],2,6,4,5,3,7,4,
6xh[1:0],2,5,1,4,8,5,1,8h[1:0],2,6,5,7,1,4,3,
8xh[8:1],,3,2,1/8xh[8:1],,,B2,8xh[8:1],3,3,,5/8xh[8:1],4,3,2,
1x/7xh[8:1],2x,3x,,3/7xh[8:1],,,,B3/7xh[8:1],,,,4z8[8:1]/7xh[8:1],,5,,
{4}4b/6h[8:1],{16}7,7,1,1,2,2,3,3,6q2[8:1]*p2[8:1],6,4,4,
{4}A6/D6/D7/B6,{16}5,5,6,6,7,7,8,8,1,1,3b,,
2hx[8:1],,1,8,2hx[8:1]/7,,,B7,2hx[8:1],,B6,,2hx[8:1]/5,6,7,8,
3hx[8:1]/1x,B1,C,,3hx[8:1]/B5,,,,3bh[8:1],,4,5bh[8:1],,4,3b,,
{1}6bqq1[16.6667#18:1]/4bpp1[16.6667#18:1],
{4},,1-5-1[4:1],,
,,,A1f/D1/D2/A8/A2,
{4}2bh[16:3]/8bh[16:3],{16}2h[16:3]/8h[16:2],,,7h[16:1],3h[16:1],8h[16:2],3h[16:1],,4h[16:1]/8h[16:3],,3xh[16:1],,
{4}7bh[16:3]/1bh[16:3],{16}7h[16:3]/1h[16:2],,,2h[16:1],6h[16:1],1h[16:2],6h[16:1],,5h[16:1]/1h[16:3],,{32}6h[16:0],7h[16:0],{16}8h[16:4],
{8}1bh[16:1],{32}3bh[16:0],4bh[16:0],{16}5bh[16:3],1h[16:3],,,4h[16:1],8h[16:1],3h[16:2],7h[16:1],,6h[16:3],,1hx[16:2],,
{16}7h[16:1],8h[16:1],7h[16:1],8h[16:1],7hx[16:0],7xh[16:0],7xh[16:0],7xh[16:0],7bhx[16:3],,8hx[16:4],,,6hx[16:1],,,
{4}7bh[16:3]/1bh[16:3],{16}7h[16:3]/1h[16:2],,,2h[16:1],6h[16:1],1h[16:2],6h[16:1],,5h[16:1]/1h[16:3],,6xh[16:1],,
{4}2bh[16:3]/8bh[16:3],{16}2h[16:3]/8h[16:2],,,7h[16:1],3h[16:1],8h[16:2],3h[16:1],,{32}7bx/4h[16:3],6x,5x,,3x,2x,1x,,
{16}8b,,8b,,7hx[8:1],,,4,3/7hx[8:1],2,1,,7hx[8:1],2,3,4,
5/7hx[8:1],,,3,2/7hx[8:1],1,8,,7hx[8:1],1,2,3,{4}4b/Ch[16:1],
{8}1bh[8:1]/7bh[8:1],,8h[8:1]/1-5[8:1],2,1-4[8:1]/7-3[8:1],6,1/7-4-6[8:2],,
7,{16}2,2,{16}3-7[8:1],,,8,{8}3-1[8:1]b,1-5[8:1]b,3b,,
6h[4:1],{32}4x,3x,2x,1x,{8}8xb,{16}6,8,7>4[16:3],8,{8}6h[4:1],7x,,
{16}5bx/7bx,,,{32}6,5,{8}6hx[16:1],2hx[16:1]/C,7hx[16:1]/C,3hx[16:1]/C,Cf/B2/B3/B7/B6,,
1-3-5[4:1]/6h[8:1],,5>8[4:1],7,8-3-5[4:1],7,5>8[4:1],7,
8-2-5[4:1],6,5>8[4:1],6,8-3-5[4:1],6,5w1[16:1],6,{64}A5f,B5,C,B1,{16}A1,,,
{16}7h[16:5]/3h[16:1],,,1h[16:5],,,5h[16:5],,,7h[16:4],,,
3h[16:1],,{24}8/4,1/5,2/6,{12}3x/7x,4x/8x,1x/5x,{4}2hx[8:3]/6hx[8:3],,
{1}A1/A3/A5/A7/B1/B3/B5/B7/Cf,
{16}1x,,,8,1x,,8,,1x,,8,8,1xw5[16:1],,,,
{1}1b-3-8-4-7-5[4:3]b,
{4}Ch[4:3],B4,B3,{64}B6/B2,B7/B3,B8/B4,E5,{16}E1,,,
8bx,2,6,4,7x,1,5,3,6x,8,4,2,Ch[8:1],,,,
A1/D1/E1,A7/D7/E7,A3/D3/E3,A5/D5/E5,E2,E8,E4,E6,A2/D3/E3,A8/D1/E1,A4/D5/E5,A6/D7/E7,Cf,,,,
{4}7pp4[16:11]/1qq4[16:11],,,,
{48}A4f,E4,E5,D4,
{48}D5,A3,A5,B3,B5,E3,E6,D3,{24}D6,A2,A6,B2,D7,D2,{16}B7,B1,A7,A1,{4}A8/D1/D8,
{24}2hb[24:5]/8hb[8:1],,,,,,8v5[8:1],,4,5-7-1[8:1],,3,8,,2h[24:1],,,,3x,,,3x,,,
4bh[8:1],,,8bh[12:1],,,4-2-8[8:1],,7,8-3[8:1],,6,4,,5h[24:1],,,,6x,,,6x,,,
7bh[24:5],,,,,,1p5[16:1],,6,1,,4,1b-4[16:1]b,,,7b-3[16:1]b,,,1x,,,7x,,,
2,,2x,4,,4x,5,,5x,7p3[16:1],,7x,1-5[16:1],,,7b,,,1b,,,,,,
6hb[24:5]/8hb[8:1],,,,,,1,,8,1,,7,1>2-4[8:1],,6,1<8-6[8:1],,,1x,,,1x,,,
5bh[8:1],,,8bh[24:2],,,4,,7,3,,6,2v4[8:1],,5,1qq8[8:1],,,2x,,,1x,,,
E4,,B3,B4,,,{8}8bv5-7-1[4:1]b,2b-4-6[8:1],8x,2x,{64}D2,A2,D3,A3,D4,A4,D5,A5,{8}D6/8bxh[4:1],
,,{48}Cf/D2/D6,A6,E2,E7,E3,B7,B3,E8,A3,D8,D4,A8,{32}A4,B8,E5,B7,{24}B4,D7,E3,{16}E6,D2,{8}D6,
{24}7xhb[24:5]/1xhb[8:1],,,,,,1p4[8:1],,5,4>2-8[8:1],,6,1,,7h[24:1],,,,6x,,,6x,,,
5bh[8:1],,,1bh[12:1],,,5-7>1[8:1],,2,1q6[8:1],,3,5,,4h[24:1],,,,3x,,,3x,,,
2bh[24:5],,,,,,8v3[16:1],,3,8,,5,8b<5[16:1]b,,,2b-6[16:1]b,,,8x-4[8:1],,,2x,,,
{4}8bw4[8:1],8b,A8/A1/D1/B2/B7/Cf/E2/E8/B5/B4/A5/A4/D6/D4,{16},,,,
{16}1bh[8:1],,,,6x,5,5,7x,4,4,8x,3,3,1x,2,2,
1x/3,8,7,2x/6,3,4,5/7x,6,5,4/8x,7,6,5/1x,8/4,7/3,6/2,
5/1b,E1,E8,A7/B2,C,B6,A6/A3,E4,E5,A5/A1,E1,E8,A7/1,2,3,4,
5bxh[8:6]/8bh[8:1],,,,8x,8x,8x,8x,8x,8x,8x,8x,8xw4[16:1],,,,
{4}8b,{16},,,2,3x/5x,6,4,7,,5,7,4,
6x/3x,5,2,4,,3,4,,2x/5x,6,,7,7v2[16:1],4,6,3,
{8}7b,,,{32}1,8,{16}1,2x/7x,7,3,3,,7,6,5,
4bhx[16:3]/3x,2,1,8,7bh[16:3],5x,5x,5x,6bh[16:3],8,1,2,3bh[16:3],8x,8x,8x,
{32}7bv8[8:1]/1bv8[8:1],6/2,5/3,4,{8},1b>4[8:1]/7b,,{32}1/5x-2[8:1]b,6,7,8,,,,,1xv4[8:1]/5,8,7,6,,,,,
1/5xp1[8:1]b,6,7,8,,,,,1x/5,8,7,6,,,,,1x/5x,2x/6x,3x/7x,4x/8x,,,,,3x/7x,2x/6x,1x/5x,4x/8x,,,,,
{16}1b/5b,2,8,3,7,4,{32}6,5,{16}6,4,5,{32}3,4,{16}3,5,2,6,1,
{4}8-6-1pp4[16:12]b/7,,8<4[16:4],8b,
{1}B4/E5/E4/D5/D4/A4f/A3,
,
,
,
{16}1,,,1,,,,,,,2,,,2,,,
1,,,1,,,,,,,8,,,8,,,
1/C,B7,A7,1/A6,A5,A4,A3,B3,C,B7,A7/2,A6,A5,A4/2,A3,B3,
{1}Ch[1:1]/1bh[4:3],
{16}1xh[16:4],,,,8xh[16:2],,7xh[16:1],6xh[16:3],,,5xh[16:2],,4xh[16:3],,,3xh[16:7],
,,,,,,2xh[16:1],1xh[16:1],8xh[16:2],,7xh[16:1],6xh[16:2],,5xh[16:2],,4xh[16:2],
,3xh[16:1],2xh[16:4],,,,1xh[16:1],8xh[16:1],7xh[16:2],,6xh[16:1],5xh[16:2],,4xh[16:2],,3xh[16:2],
,2xh[16:1],1xh[16:2],,8xh[16:2],,7xh[16:2],,6xh[16:1],5xh[16:1],4xh[16:1],3xh[16:1],2xh[16:1],1xh[16:1],8xh[16:1],7xh[16:5],
,,,,6xh[16:3],,,5xh[16:5],,,,,{32}4xh[32:5],,,,,3xh[32:7],,,
{16},,2xh[16:1],1xh[16:2],,8xh[16:2],,7xh[16:2],,6xh[16:1],5xh[16:2],,{32}4xh[32:5],,,,,3xh[32:13],,,
{16},,,,,2xh[16:1],1xh[16:1],8xh[16:6],,,,,,7xh[16:1],6xh[16:1],5xh[16:5],
,,,,4xh[16:1],3xh[16:1],2xh[16:1],1xh[16:2],,8xh[16:2],,7xh[16:1],6xh[16:4],,,,
Ch[1:1],,,,8,7,6,5,
E
