&title=Nemophila
&artist=TAN1CHU
&first=0.15
&des=ZH0NG
&des_5=ZH0NG
&lv_5=14
&inote_5=(170){4},,,,,,,,{8}3,
4,5>2[8:1],6,{2},{8}6,
5,4<7[8:1],3,{2},{8}2,
1,8>3[8:1],7,{2},{8}7,
8,1<6[8:1],2,{2},{12}5xh,
5xh,5xh,5xh[8:1],{6},{16}4xh,{8},{16}4xh,{8},4xh,
{12},6xh,{6}6xh,6xh[6:1],3xh,{48},{16}3xh,{8},3xh,
{12}7xh,7xh,,7xh,7xh,7xh,{4}2xh[12:1],2xh,
{16}8,1,8,1,7,2,7,2,{24}6,5,4,3,2,1,8/4,5,6,7,8,1,
{16}6,5,7,4,6,5,8,3,{2}6<8[8:1],
{16}2,1,3,8,2,1,4,7,{8}2>4[8:1],8x,7x,6x,
,{16}3,3,{8}5,6h[4:1],,3,,2/6,
{16}7,1,7,1,8,2,8,2,7,6,5,4,1,2,3,4,
6,5,7,4,6,5,8,3,{2}6<8[8:1],
{16}2,1,3,8,2,1,4,7,{8}2>4[8:1],8x,7x,6x,
,{16}3,3,{8}5,6h[4:1],,3,,2/6,
{16}7,1,7,1,8,2,8,2,7,6,5,4,1,2,3,4,
{4}8<5[8:1],3-1[8:1]/8-4[8:1],3/8,{8}E6,E7,
8<5[8:1],1,2,3,4<7[8:1],3,2,1,
8,{16}1,7,{8}1,8,6/5,7,6/5,4,
3>8[8:1],4,5-2[8:1],6,{4}7-4[8:1],{8}7/8,8,
{4}1>4[8:1],6-8[8:1]/1-5[8:1],6/1,{8}E4,E3,
1>4[8:1],8,7,6,5>2[8:1],6,7,8,
1,{16}8,2,{8}8,1,3/4,2,3/4,5,
6<1[8:1],5,4-7[8:1],3,{4}2-5[8:1],{8}2/1,1,
8,8,8,8,2/6h[4:1],2,2,2,
7/3qq1>4[2:1],7,7,7,5,5,5,{16}5,4,
{8}5,5,5,5,3/7h[4:1],3,3,3,
6/2pp4>1[2:1],6,6,6,8,8,8,{16}8,1,
{8}7,6/5,2,3/4,5/6,7,4/3,2,
1/7,6,2/8,3,4/5,8/6,5/4,1/3,
2/7,2/7,3/6,3/6,{16}4,5,4,5,{32}3bx,2,1,8,7,6,5,4,
{2}3qq8[2:1],{4}7-4b[8:1],7bx,
{24}1b/2b,8/3,7/4,6xh[4:1]/5xh[4:1],{3},{24}7,4,7,4,7,4,{8}7q4[4:1],3,
{4}4-6<1[4:1],1-3-5[4:1],5pp5[4:1],1,
{16}2<7[8:1],{8},{16}4,{8}2,4,5/3h[8:3],6,{4}7,
{16}8-2[8:1],{8},{16}3,3-7[8:1],{8},{16}6,{4}6-4[8:1],1,
{24}8b/7b,1/6,2/5,3xh[4:1]/4xh[4:1],{3},{24}2,5,2,5,2,5,{8}2p5[4:1],6,
{4}5-3>8[4:1],8-6-4[4:1],4qq4[4:1],8,
{16}7>2[8:1],{8},{16}5,{8}7,5,4/6h[2:1],3,{4}2,
1qq7[4:1],7-1-3[4:1],5-8[8:1],5,
{24}4,3,2,1,8,7,6-1[8:1],5,4,3,{12},{8}6b,3,2v5[8:1],8,
2,1<4[8:3],4,3,2,1,{4}8h[8:1],
{8}7-4[8:1],3,2-5[8:1],1,8-4[8:1],7,1,1,
2-5[8:1],6,7-4[8:1],8,1-5[8:1],2,8,8,
{24}7,6,5,4,3,2,1-5[8:1],8,7,6,{12},{8}1b,8,7,6,
5,3/4,2,3/4,6,4/3,1,3/4,
{12}5,2,2,6,3,3,7,4,4,{96}8bx,{48},{96}7,{48},{32}6,5,4,3,2,1,
{4}8-4-2[4:1],2-5[8:1],1,{8}2,3,
4/7,5,6,7<4[8:1],4,3,2,1,
5,6,{16}7,8,7,8,{8}6,5/1,2,3/4,
6/5h[4:1],{16}7,8,{8}1h[4:1],{16}4,3,{8}2h[4:1],8,7,6,
{4}2-5-7[4:1],7-3[8:1],8,{8}7,6,
5/2,4,3,2>5[8:1],5,6,7,8,
4,3,{16}2,1,2,1,{8}3,4/8,7,6/5,
3/4h[4:1],{16}2,1,{8}8h[4:1],{16}5,6,{8}7h[4:1],1,2,3,
{4}7-4-2[4:1],2-6[8:1],1,{8}2,3,
7,6/4,2,5/3,{16}6,5,6,5,7,4,8,3,
1,2,5,4,7,8,5,4,1,2,8,3,7,4,6,5,
7,4,6,3,5,2,4,3,5,4,6,5,7,4,6,3,
{4}5<1[4:1],1s5[4:1],{8}3x-7b[8:1],3x,{4}3bx,
{8}6/4,7,5/3,2,6/5,8,4/3,1,
7<4[8:1],7,3>8[8:1],3,6-1[8:1],6,2-5[8:1],2,
8,8,8,8,{16}1,7,1,7,1-5b[8:1],7,1,7,
1bx<2[2:1],C,{8},,,{2}8xh[4:1],
{4}1/E8/B7,7/B2/B3,3/B6/E6,{8}5xh[16:1]/4xh[16:1],5xh[16:1]/4xh[16:1],
{24}3,4,3,6,5,6,2,3,4,7,6,5,1,2,3,4,5,6,7,8,1,2,3,4,
8,7,6,5,4,3,2,1,8,7,6,5,{4}4<7[8:1]/8>3[8:1],8b/4b,
{8}1-3-5[4:1],6,5-2[8:1],7,8-4[8:1],7,{4}6,
{8}6-4[8:1],4-8[8:1],3,2,{32}1,2,{16}3,,{32}2,3,{8}4,{32}3,4,{16}5,
{4}7<4[8:1],7/4,{8}2-5[8:1],5-3-1[4:1],{4}2,
{24}8,7,6,5,{12},{24}7,6,5,4,{12},{24}1,2,3,4,{12},{24}2,3,4,5,{12},{8}7-4[8:1],
4-6-1[4:1],1,1,2,2,{4}7<4[8:1]/3>8[8:1],
3-6[8:1]/7-2[8:1],3q8[4:1]/7q4[4:1],{2},{24}8,
7,6,5,4,3,2,1,8,7,6,5,{8}4/3v8[8:1],8/7-4[8:1],3,7,
2-4[8:1],{24}5,6,7,{8}2-8[8:1],{24}8h,7h,6h,{8}2,4,5,6,
8/7v4[8:1],4/3-8[8:1],7,3,6-8[8:1],{24}1,2,3,{8}6-4[8:1],{24}4h,3h,2h,
{8}6,1,2,3,{32}4bx/7bx,6,{16}5,,{32}4bx/1bx,2,{8}3,{32}8bx/4bx,7/3,6/2,1/5,
{8}4/8h[8:3],5,6,7h[2:1],1,2,3,4,
5h[4:1],7,6h[4:1],8,4h[4:1],8,5h[4:1],1,
3,3,3,3,{16}3,4,3,4,{32}2bx,1,8,7,6,5,4,3,
{2}2pp5[2:1],{4}6-1b[8:1],6bx,
{16}D2,D1,D8,D7,D6,D5,D4,D3,E2,E1,E8,E7,E6,E5,E4,E3,
{8}E2,E1,C,E5,{2}3bxpp5pp7pp1[4:5]/6bxqq4qq2qq8[4:5],
E
