&title=Secret Illumination (seatrus's "The AURA" Remix)
&artist=Yooh
&first=0.065
&lv_5=13+
&des_5=arcanum's "The H∆LO" Chart
&inote_5=
(176){1},3-8-5[2:3]/6-2[4:3],,
4h[4:7]/7p1[4:5],,
8z4[2:3]/5-8[1:1],,
5/1w5[4:5],,{4}7b/3b,
{12}5,,5,{4}3,{12}4,,4,
{4}6,{12}5,,5,2,4,3,7,5,6,
{4}1,{12}8,,8,{4}2,{12}1,,1,
{4}7,{12}8,,8,2,4,3,7,5,6,
{4}3,{12}5,5,4,{4}6,{12}3,3,5,
{4}4,{12}6,,6,2,1,3,7,8,6,
{4}4,{12}5,5,3,{4}4,{12}4,4,6,
{4}5,{12}5,5,3,6,6,3,7,7,3,
{4}8b,{12}1-5[8:1],8,2,{4}1,3,
{6}4/6,4-1[8:1],{12},4,{4}E8/B7,{12}8,8,1,
{4}7,{12}5-1[8:1],6,4,{4}5,3,
{6}2/8h[4:1],2,{12},{24}7,6,{6}5/C,{12}3,3/Cf,{6},{4}7b/4b,
{12}5-1[8:1],4,6,{4}5,7>2[8:1],
{6}7/3,3<6[8:1],{12},3,{4}B2/E2,8-4[8:1],
8/2,{12}5-1[8:1],4,6,{4}5,7<4[8:1],
{6}7/1,1,{12},{24}2,3,{6}4/C,{12}6,6/Cf,{6},{4}5xh[6:1]/3xh[6:1],
5h[6:1]/E2,4h[6:1]/2h[6:1],4h[6:1]/A1,
3xh[6:1]/5xh[6:1],4h[6:1]/E8,5h[6:1]/7h[6:1],6h[6:1]/A8,
{6}4x/2x,{12}2,5,,5,3x,7,4,6x,1,4,
{4}Cf,{2},{4}7>2b[8:1]/3<6b[8:1],
7b/3b-1[8:1],{8}8/3-5[8:1],7,{4}6h[8:1]/3-1[8:1],{8}7/3,7,
{16}7,1,8,1,6,4,5,4,7,1x,5x,3x,{8}7<4[8:1],7,
{4}7/3v8[8:1],3/7-4[8:1],7/3<6[8:1],{8}3/8V25<6b[4:1],8,
{4}8/4>1[8:1],4,{16}7,8,7,8,{8}6v1[8:1],6,
6/2>5[8:1],2,{4}2/6-8[8:1],3h[8:1]/6-4[8:1],{8}2/6,2,
{16}2,8,1,8,3,5,4,5,2v1[8:1],8,4,6,{4},{6}6/2,
{12}4,5,6,7,1,2,3,6/4,{6},{12}8/3x,
{24}7,3x,{12}6,5/3x,2,1,{8}8/7x,{16}6,5x,{8}6x-1[8:1],7x/4x,
{4}2-6b[8:1]/6>3b[8:1],6b/2b-8[8:1],5h[8:1]/2-4[8:1],{8}6/2,6,
{16}7,1,8,1,6,4,5,4,7,1x,5x,3x,{8}7-4[8:1],7,
{4}7/3v8[8:1],3/7<4[8:1],7/3-6[8:1],{8}3/8-2-5<6b[4:1],8,
{4}8/4>1[8:1],4,{16}7h[8:1]/8h[8:1],{8},{16}4h[8:1]/2h[8:1],{8},6/5,
5-1[8:1]/3-7[8:1],5/3,{4}3/5,2/8-5[8:1],{8}4/8,3,
{16}2,8,1,8,3,5,4,5,2v3[8:1],8,4,6,{4},2b/7b-4b[8:1],
7x/1x-6b[8:1],1x/5x-2b[8:1],3x/5x,
{8}8x-5b[8:1]/4x-1b[8:1],7x/3x,{4}8x/4x,{8}6x/2x,{16}3x,4x,{4}3-8b[8:1],
7b>2[8:1]/3b<6[8:1],3/7-4[8:1],7/3>8[8:1],{8}6,5,
{16}4,8,5,1,6,2,7,3,{384}4x>1[8:1],8x<5[8:1],{4},{16},,,{64},,,{96},{4}7b-4[8:1]/3b-8[8:1],
7>2[8:1]/3<6[8:1],3/7,{8}1/5,8/4,
{16}2h[8:1]/6bxh[8:1],{8},{16}3h[8:1]/7bxh[8:1],{8},1h[8:1]/5bxh[8:1],,E7/E3,{4}Cfh[4:1],
,{8}2-4[8:1]/6-8[8:1],1/5,{4}2/6,{8}1/5,8/4,
3-5[8:1]/7-1[8:1],2/6,{4}7/3,{8}3<6b[8:1]/7>2b[8:1],2/6,{4},{6}1/5,
{12}4,3,2,1,7,6,5,4/2,{6},{12}1/6x,
{24}2,6x,{12}3,4/6x,7,8,{8}1/2x,{16}3,4x,{4}3x-7b[8:1],
7b/Cf,{12}6,6,4,{4}5,{12}2,,2,
{4}4,{12}6,,6,4,3,2,6,7,8,
{4}5,{12}3,3,5,{4}4,{12}6,,6,
{4}5,{12}3,,3,8,7,6,2,3,4,
{4}1,{12}7,7,5,{4}6,{12}2,,2,
{4}4,{12}5,,5,3,2,1,5,6,7,
{4}4,{12}2,2,8,{4}1,{12}7,,7,
{4}5,{12}3,,3,7,6,5,1,2,3,
{4}4x/E8f,{12}6/E4,6h[12:1],,{4}2/E6,8h[6:1]/E2,
3/B7,5h[6:1]/B3,{12}4/B5,3,2,6/B1,7,8,
{4}5/E1,{12}3/E5,3h[12:1],,{6}7/E3,{12}1,E7,{6}2,
{4}5h[6:1]/B3,3h[6:1]/B7,{12}8/B1,7,6,2/B5,3,4,
{4}1x/E5,{12}7/E1,7h[12:1],,{4}3h[6:1]/E7,5h[6:1]/E3,
1x/B7,6h[6:1]/B3,{12}3/B5,2,1,5/B1,6,7,
{4}4x/E1,{12}2/E5,2h[12:1],,{6}6x/E3,{12}4,E7,{6}3,
8x/B2,{12}7,B6,{6}8,4x/B2,{12}3,B6,{6}4,
{1}2bqq3<4[2:3]/6bqq7>8[2:3],
,{4}1h[6:1]/5h[6:1],
8h[6:1]/4h[6:1],7h[6:1]/3h[6:1],6h[6:1]/2h[6:1],
5h[6:1]/1h[6:1],8h[6:1]/4h[6:1],7h[6:1]/3h[6:1],8>3b[8:1]/4<7b[8:1],
8b/4b,{384}8x<5[8:1],4x>1[8:1],{16},,,{64},,,{96},{4}8b/4b,4/8>3b[8:1],
{6}5b<8b[8:1],{12}5,4>1[8:1],,4,{6}7b<4[8:1],{12}7,8,,8,
5x,3,7,4x,6,2,7x/3x,7/3,7/3,2x/6x,2/6,2/6,
{4}8/4,{2},{4}2x-7b[8:1]/6x-3b[8:1],
{1}6b<5[1:1]/2b>1[1:1],
{2},{16}4/8,3/7,2/6,1/5,{4}8x/4x,
{8}7b/3b,6,{16}5/2h[8:1],6,{8}7,{16}3/7h[8:1],2,{8}1,{4}1/6,
{8}3/7,2,{16}1/6h[8:1],2,{8}3,{16}7/3h[8:1],6,{8}5,{16}2/5h[8:1],3,{8}4,
4x/6x,7x/3x,{16}8x/2xh[8:1],7,{8}6,{16}1/6h[8:1],2,{8}3,{4}3/7,
{16}4/7h[8:1],3,{8}2,{16}8/2h[8:1],7,{8}6,6/3,5/4,{4}1/8,
{8}7b/3b,6,{16}5/2h[8:1],6,{8}7,{16}3/7h[8:1],2,{8}1,{4}1/6,
{8}3/7,2,{16}1/6h[8:1],2,{8}3,{16}7/3h[8:1],6,{8}5,{16}2/5h[8:1],3,{8}4,
{4}6x-3[8:1]/4x-7[8:1],6/4,{16}1xh[24:1],1xh[24:1],1x,1x,{8}8x/2x,3/7,
1x/5,6x/2,3x/7,4/8x,{384}5x>2[8:1],1x<6[8:1],{16},{64},,,{96},{8}2/6x,{4},Cf/E4/E8/B3/E3/B7/E7,
D2/E2/E6/D6,{32}7,6x,{16}5xh[16:3],,{32}3,2x,{4}1xh[8:1],
{32}2,3x,{16}4xh[16:3],,{32}6,7x,{4}8xh[8:1],{8}3/7,1/5,{4}Cf/B6/B2/A6/A2,
{8}3h/7h,3h/7h,4h/8h,8h/4h,{16}1,5,1,5,{8}1,{24}8x/4x,7x/3x,6x/2x,
{8}1x/5,{16}8,4,8,4,{8}8,{16}1xh/5xh,2xh/6xh,3xh/7xh,4xh/8xh,{4}5xh/1xh,
{8}7b/8b-4b[8:1],1b/2b,{4}8b/1b,{8}3b/5b,6b/4b,7b/5b,{16}8b,8b,
{8}2b,4b/3b,{16}6b,5b,6b,5b,{8}6bv5[8:1],7b/4b,{4},{6}6x/2x,
{12}4,3/8x,2,1,7/8x,6,5,4x/3x,{6},{12}1/6x,
{24}2,6x,{12}3,4/6x,7,8,{8}1/5x,{16}4,4,{24}2-6[8:1],1,8,7,6,5,
{1}A2f,
E
