&title=Legendary Dominion
&artist=Laur (Pump It Up Fiesta 2)
&first=0.15
&des_5=Master, the Domination
&lv_5=14+
&des=Master, the Domination
&inote_5=(210){4},,,,
(210){4}8b-5b[4:6]/1b,8b/1b,2,1,,3,4,3,
(210){4}7b-4b[4:6]/8b,7b/8b,1,8,,2,3,2,
(210){4}3b-8b[4:6]/4b,3b/4b,5,4,,6,5,6,
(210){4}8bp5b[4:6]/1bq4b[4:6],8b/1b,,,,,,,
(210){8}B1,,B7,B3,B5,,B8/B7,,B1/B2,,B6/B5,,B3/B4,,,,B8/B1,,
(210){4}8/1,7/2,6/3,
(210){4}5b-3-6-2-7-1b[0.3##4]/4b-6-3-7-2-8b[0.3##4],,,,,,,,,,,,,,,,
(210){8}B7/B8/B1/B2/Cf,,,,B6/B5/B4/Cf,3,7,2,
(210){8}8h[8:1],1,7h[8:1],2,8h[8:1],1,7h[8:1],3,8h[8:1],2,7h[8:1],4,
(210){8}B6/B5/B4/B3/Cf,,,,B7/B8/B1/Cf,2,6,3,
(210){8}5h[8:1],4,6h[8:1],3,5h[8:1],4,6h[8:1],2,
(210){8}B8/B1/Cf,,
(210){16}4,,5,,3,6,3,,6,3,6,,
(210){8}B5/B4/Cf,,
(210){16}1,,8,,2,7,2,,7,2,7,,
(210){16}1b,,5,6,5,,1b,,5,6,5,,1b,,5,6,
(210){16}1,2,3,4,8,7,6,5,1,2,3,4,8,7,6,5,
(210){8}1bh[8:1],8,2h[8:1],7,1h[8:1],8,2h[8:1],6,1h[8:1],7,3h[8:1],5,2h[8:1],5,4,4,
(210){8}8bh[8:1],1,7h[8:1],2,8h[8:1],1,7h[8:1],3,8h[8:1],2,6h[8:1],4,
(210){32}7h[8:1],,,,2x,3x,4x,,6h[8:1],,,,2x,3x,4x,,
(210){16}5b,6,5,6,,,3b,4,3,4,,,5b,6,5,6,,,3b,4,3,4,,,
(210){32}7h[8:1],,,,2bx,3x,4x,,6h[8:1],,,,2bx,3x,4x,,
(210){16}5b,6,5,6,3b,4,3,4,6b,5,7,3b,4,2,6b,5,7,3,4b,2,6,5b,8,3,4,1b,6,5,8b,3,4,1b,
(210){8}2bh[8:1],8,2h[8:1],7,1h[8:1],8,2h[8:1],6,1h[8:1],7,3h[8:1],5,2h[8:1],5,4,4,
(210){8}8bh[8:1],1,7h[8:1],2,8h[8:1],1,7h[8:1],3,8h[8:1],2,6h[8:1],4,
(210){32}7h[8:1],,,,2x,3x,4x,,6h[8:1],,,,2x,3x,4x,,
(210){16}1b,5,1,5,2b,6,2,6,3b,7,3,7b,4,8,4b,8,3,7b,3b,7,4b,6,4b,6b,
(210){32}7h[8:1],,,,2bx,3x,4x,,6h[8:1],,,,2bx,3x,4x,,
(210){16}5,7,5b,7b,4b,6,4,6,3b,5,3,5,2b,5,2,5,2b,6b,2b,6,3,7b,3b,7b,
(210){16}5<4[0.15##0.3],,,,,,,,
(210){8}Cf,,,,,,,,B4/B3,,,,,,,,B6/B5/E6,,,,,,,,B7/B6/Chf[2:1]/B3/B2,,,,
(210){8},,,,3b/6b,,
(210){32}5,,,5,,,5x,,6bx/4bx,,,,,,,,4,,,4,,,4x,,3bx/5bx,,,,,,,,8,,,8,,,8x,,7bx/1bx,,,,,,,1,,,8,,,1,,,7bx<1b[0.25##0.9]pp4[0.25##0.85]/2b>8[0.25##0.9]qq5[0.25##0.85],,,,,,,,,,,,,,,,,,,,,,,,,,,,,,,,,,,,,,,,,,,,,,,,,,,,,,,,,,,,,,,,
(210){16}B1,B2,B3,,B8,B7,B6,,B2,B3,B4,,B7,B6,B5,,
(210){16}1,2,3,4,5,6,7,8,B1,B2,B3,B4,B5,B6,B7,B8,
(210){8}1xbh[8:1],8,2h[8:1],7,1h[8:1],8,2h[8:1],6,1h[8:1],7,3h[8:1],5,2h[8:1],5,4,4,
(210){8}8bh[8:1],1,7h[8:1],2,8h[8:1],1,7h[8:1],3,8h[8:1],2,6h[8:1],4,
(210){8}B2/B3,B7/B6,
(210){16}4,5,4,5,4b,3,2,1,5,6,7,8,1,2,3,4,8,7,6,5,4b,3,2,1,5,6,7,8,1,2,3,4,8,7,6,5,4b,3,2,1,5,6,7,8,1,2,3,4,8,7,6,5,4,5,4,5,3,6,3,6,2,7,2,7,1,8,1,8,1b,2,3,4,5,6,7,8,1,2,3,4,5,6,7,8,1b/C,2,3,4,5,6,7,8,1,2,3,4,5,6,7,8,
(210){16}1bx,,5,6,5,,2bx,,5,6,5,,3bx,,5bxpp1b[0.25##0.8]*qq1[0.25##0.8],6,5,,,,,,,,,,,,,,,,
(210){4}2v5[8:1]/6b-1b[8:1],2/6,8/4b,{8}1/7,2/6,3h[16:1]/5,3h[16:1],3h[16:1]/1,3h[16:1],3h[16:1]/6,3h[16:1],3h[16:1]/4,3h[16:1],
(210){4}7v4[8:1]/3b-8b[8:1],7/3,1b/5,{8}2b/8,3/7b,4b/6h[4:1],,8b,1b/5b,4-8[8:1],2-5[8:1],4,2,
(210){4}8x<6[8:1]*v5[8:1],8b>2[8:1]*v3[8:1],8b,{8}5b/6b,4b/7b,8bh[8:1]/3bh[8:1],,1b/6b,1b/6b,{16}7b,8b,7b,8b,6b-3b[8:1],5b,6b,5b,
{8}6b,,2/8,{16}3,4,2,,6,5,{8}7-3[8:1],8,7/1>4[8:1],,1/5w1b[8:1],,Cf/B1/B5/A1/A5,,,,
(210){32}6/4,,,,,,,5,,,5,,,5x,,,6bx/4bx,,,,,,,4,,,4,,,4x,,,3bx/5bx,,,,,,,8,,,8,,,8x,,,7bx/1bx,,,,,,,1,,,1,,,1,,,
(210){16}3,5,3,5,2,6,2,6,3,7,3,7,2,8,2,8,
(210){32}1b,2,3,4,5,6,7,8,1,2,3,4,5,6,7,8,
(210){32}1,2,3,4,5,6,7,8,1,2,3,4,5,6,7,8,
1w5[8:10],,,,,,,,,,,,,,,,,,,,,,,,,,,,,,,,,,,,,,,,,,,,,,,,,,,,,,,,
(210){16}4/8,1/5,2/6,3/7,4b-7b[0.3##0.2]/8b-3b[0.3##0.2],,,,,,,,2x,6x,1x,5x,8x,4x,7x,3x,3-7[0.15##0.1],,3,,6-2[0.15##0.1],,6,,4-8[0.1##0.15],,4,,5-1[0.15##0.1],,4,,1x,2,3,4,8,7,6,5,1,2,3,4,5/7,,8/1,,4<8b[8:1],,3,,2,,1,,8>4b[8:1],,,6,6,,5,,
(210){16}4b/5b,,,,3,6,3,6,2h[8:1],,,7h[8:1],,,1h[8:1],,,
(210){16}8,7,8,7,1,6,1,6,2,5,2,5,3,4,3,4-7[0.15##0.15],,4,,5-2[0.15##0.15],,5,,1-6[0.15##0.15],,1,,8-3[0.15##0.15],,8,,
(210){32}1b,2,3,4,5,6,7,8,1b,2,3,4,5,6,7,8,1w5[7:1],,,,,,,,
(210){16}Cf,,,,8-4[0.15##0.15],,8,Cf,1-5[0.15##0.15],,1,Cf,2-6[0.15##0.15],,2,Cf,3-7[0.15##0.15],,3,Cf,1-5[0.15##0.15],,1,Cf,8-4[0.15##0.15],,8,Cf,7-3[0.15##0.15],,7,Cf,6-2[0.15##0.15],,6,Cf,5bpp8[0.15##0.85]*qq1[0.15##0.85],,,,,,,,,,,,C,B8/B1,A8/A1,,7/2,,,,
(210){32}3x,,,3x,,,3x,,5x,,,5x,,,5x,,6x,,,6x,,,
(210){16}6x,8b,7,1,6,2,5,3,4,1,8,2,7,3,6,4,5,2b,1,3,8,4,7,5,6,1,8,2,7,3,6,4,5,4b,5,4,5,3b,6,3,6,2b,7,2,7,1b,8,1,8,
(210){32}1b,2,3,4,5,6,7,8,1b,2,3,4,5,6,7,8,1b,8,7,6,5,4,3,2,1b,8,7,6,5,4,3,2,
(210){8}B7/B8/B1/B2/Cf,,,,B6/B5/B4/Cf,3,7,2,
(210){8}8h[8:1],1,7h[8:1],2,8h[8:1],1,7h[8:1],3,8h[8:1],2,7h[8:1],4,
(210){8}B6/B5/B4/B3/Cf,,,,B7/B8/B1/Cf,2,6,3,
(210){16}4,5,4,5,3,6,3,6,2,7,2,7,1,8,1,8,
(210){8}4b/5b,
(210){16}4,,6/3,,6,,2,7,2,,7,2,7,,
(210){8}1b/8b,
(210){16}1,,7/2,,7,,3,6,3,,6,3,6,,
(210){16}8b,,5,6,5,,1b,,5,6,5,,2b,,5,6,
(210){16}1,2,3,4,8,7,6,5,
(210){32}1,2,3,4,5,6,7,8,1,2,3,4,5,6,7,8,
(210){8}1/Chf[2:1],,,,/1bw5b[13:30],
