&title=XTrinity
&artist=Sakuzyo
&first=0.69
&des=Aza
&lv_5=13+
&inote_5=(180)
{4}1h[1:1]/7b,7,6,6,5,{8}5,2x,4,3,5,4,7x,5,6,4,3/5h[4:1],,2,2,4,4,6,6,7,8,1,1,{4}8h[2:1]/2,E5/B4/B5,1h[2:1],E4/B4/B3,7h[2:1],{8}E6/B5/B6,4x,3,2,5,6,4/7x,3,2>5[8:1]/5,6,7-3[8:1],,8,8,1,1,2/5,2/5,3/6,4/7,8x-4b[8:1],,
{4}1x/8,1,2/5h[4:1],2,3h[4:1]/7,{8}7,6x,3/5,4,5/7,6,5/2,3,4/6,5,4/3xqq8[4:1],,5,5,6,6,7,1/8,2,7,3,6,{4}4h[8:1]/5h[8:1],4h[8:1]/2h[8:1],4h[8:1]/5h[8:1],7h[8:1]/5h[8:1],4h[8:1]/5h[8:1],{8}C/B3/B6,E1,E8,E7,B2,B3,D5,D6,D7,D8,D1,,2x,2x,3/5,7,1-3[8:1],1-7[8:1],1pp5b[4:1],,,,
{4}6,4/7-4[8:1],2-6[8:1],8-4[8:1]*-3[8:1],8b,{8}A5/A6/E6/D6,1,2>4[8:1],5,2,8<6[8:1],5,8,1,2/5,3/4-8[8:1],,2-5[8:1],2,1-6[8:1],1,3,3,4/5,6,7/8,1,{4}2/6>3[8:1],1-5[8:1],7-3[8:1],4-1[8:1]*-7[8:1],4b,{8}A3/A2/E3/D3,8,7<5[8:1],4,7,1>3[8:1],4,1,8,7,5/6pp1[4:1],,4,4,3,3,2/8,7,5x,3x,{4}1b-3[8:1]/6b,
{4}7-1[8:1],2-5[8:1],7-3[8:1],1-5[8:1]*-6[8:1],1b,{8}A4/A3/E4/D4,8,7<5[8:1],4,7,1>3[8:1],4,1,8,7/4,6/5-1[8:1],,7-4[8:1],7,8-3[8:1],8,6,6,5/4,3,2/1,8,{4}7/3<6[8:1],8-4[8:1],2-6[8:1],5-8[8:1]*-2[8:1],5b,{8}A6/A7/E7/D7,1,2>4[8:1],5,2,8<6[8:1],5,8,1,2,4/3qq8[4:1],,5,5,6,6,7/1,2,4bx,6bx,{4}8bx/1bx,
{16}2b/5b,,2x,1,2,,3,,4/7,,7x,8,7,,6,,1>4[8:1]/5,,2,6,1,,7,,{8}5-2[8:1]/8-4[8:1],,5/8,,1,1,2q5[4:1],5,6,,8,8,{16}1/7,,,2,{8}4,3,5x/4x,7x,1b/2b,,
{16}3b/8b,,7x,5,7,,6,,1/6,,2x,4,2,,3,,{4}4/5x-8[8:1],5x-2[8:1],5x-1[8:1],5x,{8}4/8,4/8,3/7,2/6,1/5,,2,2,{16}3/4>1[8:1],,,5,4,,6,,{8}7x/8x,1x/2x,3x/4x,5x/6x,
{16}4b/7b-4[8:1],,6x,8,7,,1,,2-5[8:1]/5,,3x,1,2,,8,,4/7,,7,8,6,,1/5,,{4}2-4[8:1]/4-8[8:1],2/4,{8}7,6,4pp1[4:1]/5,3,2,,3x,3x,8<5[8:1],{16},4,8,,3,,{8}2x/4x,1x/8x,5b/7b,,
{16}3-8[8:1]/8,,2x,7,3,,5,,1/6-1[8:1],,7x,2,6,,3,,{4}4b>1[8:1]/5b<8[8:1],4b-8[8:1]/5b-1[8:1],4b/5b,2b/7b,{8}3,4,5,3/6,1/8z4[8:1],,3,3,{16}2,1,3,8,4,7,5,6,4,,1b/7b,,{4},
{4}3-8V25[4:1]/5,{8}6h[16:1],6h[16:1],6h[16:1],6h[16:1],4/7,3x,{16}8,7,6,5,8-4V61[4:1],1,2,3,{4},2-6[8:1],2v5[8:1]/8v5[8:1],2/8,{8}4,3/5,{4}2/6-3[8:1],2-7[8:1]/6,2/6-3[8:1],2-7[8:1]/6,2/6,1x/8x-5V37[4:1],{8}2h[16:1],2h[16:1],2h[16:1],2h[16:1],1/6,5x,{16}1,2,3,4,1V35-2[4:1],8,7,6,{4},8-4[8:1],1/8,{8}2/5,3/6,4/7,3/6,{4}2/5<8[8:1],4>1[8:1]/5,5<8[8:1]/4,4>1[8:1]/5,5/4,
{4}7/8b,{16}6,4,6,4,7,4,7,4,{8}8-4-7[4:1],1,2<6-3[4:1],,,,1-5[8:1],8,7s3[4:1]/1,,4h[16:1],4h[16:1],4h[16:1],4h[16:1],3/5,2/6,{4}1/7-4[8:1],1-5[8:1]/7,1v4[8:1]/7v4[8:1],1-6-2b[4:1]/7,,8x,{16}3,4,3,4,2,5,2,5,{8}1s5[4:1],6,7-2-8v6[4:1],,,,3,2,1>4[8:1]/7<4[8:1],,1x-5-2-6[4:1]/7x,,8h[16:1],8h[16:1],8h[16:1],8h[16:1],4/7,3/6,{16}2/5,1,8,7,6,5,4,3,{4}2v5[8:1]/8v5[8:1],2/8,
{1}3b/7bp4^2q5<2[2:14],,,,Ch[2:7],,,,1<5V38[1:2],,2-7-4>1[1:2],,7-2-5-8[1:1],8-3-6-1b[1:1],1-4-7>6[2:3],,
{4}7h[1:1]/4b,4,4,4,4,{8}4,6,4,7,4,8,4,1,3,8,2-5[8:1],,6,6,7,7,6/8,6/8,1/5<8[8:1],2,3,4,{4}5V31[4:1],E1/B1,4V68[4:1],B8/B7,1-5[8:1],{8}C,6,7-4[8:1],7,2-6[8:1],2,8qq3[4:1],8,4,4,4,,2,2,4-7[8:1],4,1-5[8:1],1,8,7,2b/6b,,
{4}3-1[8:1]/4,C,8-4[8:1],E3,2/5-7[8:1],{8}5,4,3,3,2/8,2/8,7,6,5-1[8:1],4,3,,2/8,2/8,3/7,3/7,4/6,4/6,5,3,6,4,{4}5/7-5^4[4:1],4-8[4:1],8^1-3[4:1],3,4-8b[8:1],{8}4,5,6,6,7/8,7/8,1/6,2,3-8[8:1],4,5,,7x,7x,1/8,2b,4b,6b,7-3[8:1]/8-4[8:1],1/6,7b/8b,,
{4}2b-6[8:1]/5b,2/7-4[8:1],3-7[8:1]/7,1-6[8:1]*-5[8:1]/3,1b,{8}4x,3,2/4,1,2-5[8:1]/8v5[8:1],7,2/8,,6-1[8:1],6,3,2,4/8,7,1/5,3/7,1-5[8:1]/5,3/7,1-6b[8:1]/5,6,1,,{4}4/8x-4[8:1],3-6[8:1]/8,3/7-3[8:1],5w1[8:1]/7,5b,{8}6x,8,1/7,2/6,3/5,2/8,4/6,,7-3[8:1],8,7,1-5[8:1],8,1,6,6,4-8[8:1]/6,4-7b[8:1]/6,,,1b,,
{4}2-5[8:1]/8,6-1[8:1]/2,6/3-8[8:1],3/7-4[8:1]*-3[8:1],7b,{8}1x/2x,8,3/7,4/6,1/5,2/4,3/7,,3-8[8:1],3,6,7,5/1,2,8/4,6/2,8-4[8:1]/4,6/2,8-3b[8:1]/4,3,8,,{4}5/7-4[8:1],3-8[8:1]/7,3/6-1[8:1],2w6[8:1]/6,2b,{8}4x/8x,3,1/2,7,5/4,3,1/6pp1[4:1],,4,3,2,3,4,5,8-3[8:1],8,4-7[8:1],4,1,1,2b/8b,,
{16}4b/7b,,6,5,6,,1/8,,2/5,,3,4,3,,1/8,,2/6-1[8:1],,7,3,6,,4,,{4}5>2[8:1]/8<5[8:1],5/8,{8}1-3[8:1],5,1-7[8:1],5,1,,5/6,5/6,4/7-4[8:1],{16},3,{8}7-3[8:1],2,7,1,{4}2b/6b,
{16}3/4,,7,8,7,,1/6,,4/5,,2,1,2,,3/8,,{4}4>1[8:1]/5,4b<7[8:1]/6,4b-8[8:1]/2,4b/8,{8}1/7,1/7,2v4[8:1]/6v8[8:1],3/5,2/6,,1,1,{16}2/8,,,3,{8}4,2/5,7,1/8,3,5,
{16}1b/2b-5[8:1],,3,4,2,,6,,7-4[8:1]/8,,6,5,7,,3,,8/2-6-1[4:1],,3,1,{8}2,7x,5-2[8:1]*-8[8:1],,5b,,3/4,2,3/4,5,1>4[8:1]/6,,1/5,5,{16}6-2[8:1],,,4,{8}6,3,1,2/8,3/7,,5/6-1[8:1],{16}7,8,6,,2,,3-8[8:1]/4,,2,1,3,,7,,{8}5b/6b,7b/4b,1b/8b,2b/7b,3b/4b,2b/5b,7/8,1/6,{16}3b,4,2,5,1,6,8,7,1b,8,2,7,3,6,4,5,{32}3b,4,5,6,7,8,1,2,3,4,5,6,7,8,1,2,3,4,5,6,7,8,1,2,{4}3,1b/8b,
