&title=Aether Crest: Celestial
&artist=水野健治 / void
&first=0.008
&des_5=Furple vs. Bradish
&lv_5=15
&clock_count=4
&inote_5=(180){4},{1},,{4},,,{8}6,
5,4-8-5<6-2[4:3],3h[8:5],,,,,,,,1x<4[8:3],
,,,,7,
6,5-1[4:1],4v2[4:1],,,,,1,
8,7-4-1[8:3],6xh[8:3],,,,,4x/8xh[4:1],
{16}E5,B5,B6,E7,{8}A7,{16}8x,1,2,3,5,6,7,8,
5x,4,3,2,7x,6,5,4,{12}E8,E7,E6,E2,E3,E4,
1xh,2h,3h,{48}5/4,,,6,,,{16}7,8,2x,3,4,5,1,8,7,6,
{8}5x/3h[8:1],{16}4,3,4,3,{8}5x/2x,{12}6h,8h,7h,{96}1x,,,2,,,{32}3,4,5,6,7,8,
{4}5bx/1bxq6[4:1],6<1[4:1],1>4[4:1],E6/A5/B5,
7<4[4:1],4q2[4:1],2<7[4:1],E4/A4/B4,
5>2[4:1],2<7[4:1],7V13[4:1],5,
6<1[16:3],B6/B5/E6,2>5[16:3],B2/B1/E2,
7qq6[4:1],6<2[4:1],2>6[4:1],E8/A8/E1/B7,
2q7[4:1],7q4[4:1],4<7[4:1],E2/A1/E1/B2,
8xh[2:1],B7/E7/B6,1h[2:1],{16}B2/E3/B3,,,8,
{4}8,3/5,{8}6/8,7/1,2/8-3[8:1],1/3,
{1}8b/4h[4:7],
3V17-5[2:1],
{8}3h[4:1]/Cfh[1:1],,,2h[4:1],,,{4}1v3[8:1]*v7[8:1],
1-5-3-7[8:3],,,8-4[8:1]/1-5[8:1],
1b/8b-6[8:1],8/2-5[8:1],2/8-4[8:1],8/2-6[8:1],
2/1-5[8:1],1/4,{16}4/6,3,2,1,7,6,5,4,
{4}8-3[8:1],{8}8/6-1[8:1],7,{4}6/2-5[8:1],{8}2/8-4[8:1],7,
2h[16:1]/8-6[8:1],2h[16:1],{4}8/3,{16}5,6,7,8,2,3,4,5,
{4}1b-5[8:1],{8}1/2,3,{4}4-7[8:1],4/2-5[8:1],
2/8-4[8:1],8/7,{16}5,6,7,8,2/1,3,4,5,
{4}7-4[8:1],{8}7/8,1,2-5[8:1],3,6-1[8:1],7,
2h[16:1],2h[16:1],3h[16:1],3h[16:1],{16}1,8,7,6,5/4,3,2,1,
B7/8xpp3[8:5],B6,{8}B5,{16}E7,E6,{8}E5,{16}D7,D6,{8}D5,{16}A7,A6,{8}A5,
{16}B3/4xpp7[8:5],B2,{8}B1,{16}E3,E2,{8}E1,{16}D3,D2,{8}D1,{16}A3,A2,{8}A1,
{16}1/8xh[8:1],2,{8}3,{16}2/8h[8:1],3,{8}4,{16}3/7h[8:1],4,{8}5,{16}4/7h[8:1],5,{8}6,
{16}8/3xh[8:1],7,{8}6,{16}7/3h[8:1],6,{8}5,{16}6/2h[8:1],5,{8}4,{16}5/2h[8:1],4,{8}3,
2x>5[8:1],5-2[8:1],2-8-3-5[16:5],8,7,6h[4:1],,,7x-4[8:1],
4-6-1[4:1],7,1-5-7[16:3],2,3h[4:1],,,8x/4>1[8:1],
7,6,5x,4<7[8:1],8,{16}8x-4[8:1],1,2,3,
{8}4/8b,,,8,{32}1x/7x,2x/6x,{16}3x/5x,,,4/3,5,6,7,
{8}8-4[8:1],1/2,{4}8b<2[4:1],8/6h[8:1],{16}6,7,{8}8h[4:1],
,2-5[8:1],1,2,6>3[8:1],7,{4}6/1,
{24}7,8,7,8,7,8,{4}7<4[8:1],{8}8,1,{16}1,2,{8}3V51[4:1],
,5/3,{4}6-8[8:1],6-4[8:1],{8}6/1h[16:1],1h[16:1],
8-4[8:1],6,{4}1/8qq2[8:3],{8}8,2,{16}2,3,{8}4h[4:1],
,5-1[8:1],6,5/3-8[8:1],2,3/7,6,5,
{24}2,1,2,1,2,1,{4}2>5[8:1],{8}7-3[8:1],8-4[8:1],7,8>5V31[8:5],
{1}B6h[4:3]/E7h[4:3]/B7h[4:3],
{8}7x/1x,{16}6,5,{8}7,2/8,{16}3,4,{8}2h[8:1]/5h[8:1],{16},6/1,{8}7/8<3[8:3],
{16},,E8,E1,E2,E3,E4,E5,E6,E7,E8,E1,{8}2x-4[8:1],4-8[8:1],
{24}2/A8,D8,A7,D7,A6,D6,{8}5xh[4:1],{16}1,2,{8}3h[4:1],{16}E1,E8,E7,E6,{8}5xh[8:1],
{16},3,2,1,5,6,7,8,{24}3,4,5,8,7,6,2,3,4,7,6,5,
{8}1b,{16}7,8,{8}6,{16}2,1,{8}3,{16}6,5,7/4h[2:1],8,{8}1-5-3-6-8[8:3],
,,,,{4}1-5b[8:1],1,
{24}7,8,7,8,7,8,6,5,4,3,,,2,1,2,1,2,1,3,4,5,6,,,8,
7,8,6h[8:1],,,8-4[8:1],1,2,3,4,5,{4}8/6h[8:1],{16}5/1-5[8:1],4/8,3/7,2/6,
{1}1b/5b,
{8},,,,,,,,,,,,,,,,,,,3/6,
5/4,{16}1,8,2,7,3,6,
{8}4/5,5/6,5/7,8/5,5/4,4/3,4/2,{24}1/4,2,3,
{8}4/7,5/6,2/4,{24}1/5,2,3,{8}4/6,{24}8,7,6,{8}5/1,1/6,
{16}2,4,3,4,1,5,{24}3,4,2,{8}5h[16:1],{24}6,5,7,{8}4h[16:1],{24}5,6,7,
{16}8,4,8,4,7,3,7,3,6,2,5,1,4,8,{32}3-7[8:11],4,5,6,
{8}7b,1,{16},1,,,,,{8}1,{16},1,,,,,{8}1,
{16},1,,,1,2,3,4,7,6,5,4,
{4}3/1h[8:1],{16}3/1h[8:1],,,4,1h[8:1],4,,5,1h[8:1],6,{8}6,
{4}7/1h[8:1],{16}8/1h[8:1],,,1,{48}7,E8,B8,B1,,,3,E4,B4,B5,,,6,E7,B7,B8,,,2,E3,B3,B4,,,{4}8h[8:1],
{16}6/8h[8:1],,,5,8h[8:1],5,,4,8h[8:1],3,{8}3,
{4}2/8h[8:1],{16}1/8h[8:1],,,8,1v3[8:1]/7v5[8:1],2/6,{8}5v8[8:1]/3v8[8:1],,,{4}A8f,
{16}6h[16:1]/E8,E1,6h[16:1]/E2,E3,{8}6/E4,6h[16:1]/B5/E5,B7/E7/6-3[8:1],{16}6h[16:1]/E8,E1,
{4}6/E2,{16}1/6h[16:1],2,3/6h[16:1],4,{48}6,E6,B5,B4,,,2,E2,B1,B8,,,7,E7,B6,B5,,,3,E3,B2,B1,,,{4}Ch[8:1],
{16}3h[16:1]/E2,E1,3h[16:1]/E8,E7,{8}3/E6,3/E5/B4,{12}E1/3>8[8:1],{24}E8,3,{12}E7,
{4}3/E6,{16}7/3v8-2-5[8:3],6,5/3h[16:1],4,{8}3,5,{4}6-1b[8:1]*<5[8:5],
A6f,2-5b[8:1],A2f,6<3[4:1],
{2}6/3>6b[4:1]*p6[4:1],{4}A6f,{24}5V71-3b[16:5],4,3,2,1,8,
{4}7/A5f,5V31-7[16:5],6,4V68-2b[16:5],
2/A4f,5V31-7[16:5],7,5,
{24}2x,3,4,7x,6,5,1x-5[8:1],2,3,8x,7,6,{4}1b/5,{32}4,3,2,1,8,7,6,5,
{4}4bh[4:1],{32}5,6,7,8,1,2,3,4,{4}5bh[4:1],{24}1-5[8:1],8,7,6,5,4,
{4}1b/3,{8}7-5[8:1],{24}1,2,3,{4}4/7-1[8:1],7/4>7[16:3],
4/6,5<2[16:3],{16}5/2,3,4,5,6-2b[8:1],7,8,1,
{1}6bp4>4[2:7]/2bp8<8[2:7]`Cf,
{2},,,,,,1V35[2:1],
6,
8V64[2:1],3,
8>4[2:1],{8}5,{16},,,,7,6,
{1}5w1[8:5],
{2}B7/B6/E7h[1:1],B2/B3/E3h[8:3],
{8},C,5,4,4/5,{48}3bh,2bh,1bh,8bh,7bh,6bh,{4}5bh,
{32}2b/1b,3/8,4/7,5/6,,,,,,,,,7b/8b,6/1,5/2,4/3,{96},,,,,,,,,,,,{24}2,1,2,{16}1,3,3,8,
{8}8bh[8:1],{24}1,2/7,3/6,{8}4/5,{24}1,8/2,7/3,{8}6/4,{24}5b,6b/4b,7b/3b,{4}8b/2b,
8b/Cf,{16}7,8,7,8,6-1[8:1],5,7,1,6/2,3,4,5,
{8}6h[8:1],{24}1,8,7,{8}6b/3,{24}8,1,2,{8}3b/5h[8:1],{24}1,8,7,{8}6b/4,{16}5,5,
8b,1,2,3,5,6,7,8,2b,4,3,5,{32}8,1,2,3,8,7,6,5,
{16}1b,1,4,4,2,4,3,5,4b,4,6,5,{8}7,8/2,
{32}7b,6,5,4h[32:3],,,{16}1b,{32}1b,2,3,4h[32:3],,,{16}8b,{24}8b,7,6,5/4,3,2,7,6,5,4/3,2,1,
8/7b,6,5,4/8b,1,2,3/8b,7,6,5/1b,2,3,{32}4/5v8[8:1]*v2[8:1],6,7,8,1,2,3,4,{4}5,
{16}1b,4,3,4,1,4,3,1,4,5,6,7,8/1,2,3,4,
{8}5b/6h[16:3],{24}7,8,1,{8}2b/6h[16:3],{24}5,4,3,{8}6b/2h[16:3],{24}1,8,7,{8}6b/2,{16}5,4,
{24}8,7,8,7,8,6,{16}1,1,5,5,4,4,1,1,{32}2,3,4,5,2,3,4,5,
{12}8b,8,8,6b/8,6,6,{16}4/6,3,2,1,8/4,5,6,7,
8x,3,1,2,8,4,6,5,7,2,1,3,{32}8,7,6,5,8,1,2,3,
{8}4b/6b,{16}5,4,6,3,7,2,{32}8,1,2,3,4,5,6,7,1,2,3,4,{8}5,
{16}7b,1,1,1,5b,1,1,1,3b,1,1,1,8b,1,8,8,
{32}1b,2,3,4,2b,3,4,5,8b,7,6,5,7b,6,5,4,{48}1bx,2,,7bx,6,,2bx,3,,6bx,5,,3bx,4,,7bx,6,,4bx,5,,8bx,7,,{1}1bh[2:7]/6V83-5-1[4:5],
{16},,,,,,,,,,,,2,3,4,5,
{1}6b-2-8-5-3-7[4:5],
{16},,,,,,,,,,,,1,8,7,6,
4b,5,3,6,4,5,2,7,8,7,5,6,4,5,2,1,
{24}2,3,4,5/7h[16:1],,,7,6,5,4/3h[16:1],{48},,,,{16}2,8,5,6,2,4,1,1,
{32}7,6,5,4,7,6,5,4,8,1,2,3,8,1,2,3,{24}6,5,7,4,8,3,1,8,7,6/5,4,3,
{32}2/6,7/3,8/4,1/5,2/6,3,4,5,6/2,1,8,7,6,5,4,3,{48}6/2h,7,8,1,2,3,4/8h,5,6,7,8,1,2/6h,3,4,5,6,7,8/4h,1,2,3,4,5,
{16}6b/2bh,E2,E1,E8,E7,E6,E5,E4,A8,E1,E2,A2,A7,B7,B3,A3,
{24}5,6,5,6,5,6,4,7,4,7,4,7,5,4,3,2/6,5,4,3/1,8,7,6/2,3,4,
{1}1-4-7-2-5-8[4:3]/5-8-3-6-1-4b[4:3],
{32},,,,,,,,,,,,,,6,5,4,3bh[32:143],
E
