&title=グッドバイ (Goodbye)
&artist=toe
&first=6.23
&des=Aza
&clock_count=4
&lv_5=13+
&des_5=
&inote_5=(135)
{8}B5,B4,,,C,,E5,,B7,,B8,,B1,,B2,,
{8}B5,B4,,,C,,E5,,B7,,B8,,B1,,B2,,
{8}B5,B4,,,C,,E5,,B7,,B8,,B1,,B2,,
{8}6,5h[4:1],,6,4,,3/5,,6,,4,,7h[4:1],,5,,
{8}6,5,6,4,3/5,,4/6,,3>8[4:1],,8<5[4:1],,5,,4,,
{8}3,4h[4:1],,3,5,,6/4,,3,,5<2[2:1],,4,,,,
{8}3x,3x,2,3,4v1[4:1],,2,,3x,3x,8,7,2>5[4:1]/6,,,{16}8,7,
{1}6-4v1[2:3],{8}2h[2:1],,,,,,3,{16}4,3,
{1}2-5v3[2:3],{8}7h[2:1],,,,,,,{16}7,6,
{1}5-3-7-1[2:3],{4},,2,3,4h[4:1],8h[4:1],2h[4:1],{8}7qq4[1:1],6,1h[2:1],,,,,,,{16}1,2,
{1}3-5v8[4:5],{4},,5h[4:1],{16}1,,2/6-4v2-8[1:1],3/7,
{1}4/8-2v4-6[8:7],{8},,,7hx[2:1]/3x,,1hx[4:1],,{24},,2x,
{1}3h[2:3]/8z4[2:1],{4}E3,E2,E1,E8,Ch[2:3]/E7,E6,E5,B5,B6,B7,B8,{24}E1,,,,2,4,
{24}3b,,,,6x,,,5x,7x,,,,{16}3h[8:1]/4,,2,3h[8:1],,4,3,5,4,,3/7,,8,1,7,2-6[16:3],{8}6x,,,,
{16}8,,,5h[8:1]/7,,6,4,,3/5h[16:3],,,2,4,3,7<4[8:1],,,4,7>2[8:1],,,2,7V51[4:1],,,3,7,,,,,,
{16}2/4,,,3h[8:1]/7,,6,5,,1-5[8:1]/8,,3-8b[8:1],4,,,,,4h[16:1],,4h[16:1],,4h[16:1]/7,,,5,3h[4:1],,,,4,3,5,,
{16}6,5,6-3[8:1],4,7,,,,,,2,1,3h[8:3],,,,,,4qq2[8:3]*pp6[8:3],,5,1,4,,{2},
{16}3b/4b,,,5/7h[8:1],,3,4,,1/2>5[8:1],,,8,2,,,,6x/7x,,5,6,4,5,3,4,2-5[8:1],,,6,2,,,,7h[8:1]/8,,,1h[8:1]/5,,,4,,2/5-3[8:1],,,6,,7h[8:1],,,2x,8,1,7-3[8:1],1-5[8:1],6,1,,,,,8,2,4,3,6,5h[8:1],,,2/5h[8:1],,6,5,,4/7>2[8:1],,,3,7V51[4:1],,,,7,,4,,3,,,2,8,3h[8:1],,5,2-6[8:1],6h[8:1],,,2,,,8,8h[8:1],,4,,1/2,,,7,8,6h[8:1],,,3/5-3[8:1],,2/6h[8:1],,,,,8,2h[8:1],,1,3,1,8,7,6,
{16}1/5h[8:1],,,3h[8:1]/4,,6,2/6,,3-8[8:1]/4,,2,4,3,,,7,5h[16:1],,4/6v4[8:1],,,,,3,3h[8:1],,4,2,6,5,7,1,8-4[8:1],,,5/7,,,3-1[8:1],,2,,3,6,5,4,8h[16:1],,1h[16:1]/4,,1h[16:1]/5,,1h[16:1]/6,,{24}7,8,7,{16}1<6[8:1],,2,5,1,,,,1-5[8:1],,,4,,2,2,,3/4,,7,5,8<5[8:1],,1/2,,8,,3,,2-6[8:1],4,1,6,2,8-4[8:1],,1,3,8x,,,1V37[4:1],,,,4,,5,,6h[8:1],,8,7,1,,1,8,2,4,3h[8:1],,7,5,5,4,4,3,3,5,4,6,A2,E3,
{4}E4/Ch[4:1],,2pp2[4:1]/8,2qq2[4:1]/E4/B3/B4,,{8},7h[4:1],,8,1,2pp2[8:3]/8,2qq2[4:1]/8,,,,,,4,5,{1}4h[2:1]/6h[2:1],
{16}1b/2b,,,3,8>3[8:1],,7,5,8,,4,4,1,,3/7-3[8:1],,6,4,7,,2,,1/4,,5pp4[4:1],2,6,4,7,,,,8x>3[8:1],,3x<6[8:1],,8x-4[8:1],,7x,,8x,,,,2,1,2,1,3h[16:1],,3h[16:1],,3h[16:1],,3h[16:1],{32}5,4,{16}6h[8:1],,3,7,4<2[4:1],,,,3h[8:3]/4,,,,,,4,,5/6-3[8:1],,,4,6V84[4:1],,,,1h[16:1],,1h[16:1],,1,,2,,3h[8:1]/5,,6,5,7-4[8:1],,8,,3/7,,2,2,5,,4/6,,8>3[8:1],,,,8,4,,,5h[8:1]/7-3[8:1],,6,4,7,,2,,3/5,,2-6[8:1],1,3h[8:1],,2,,1V74[4:1],,,5,1x<2[4:1],,3x,,{2}1x,{8}3x/5x,5x/6x,2x/5x,3x/4x,{16}2,1,,8,4,6h[8:1],,,3/7-3[8:1],,1-5[8:1],2,,,1,,6h[8:1],,3,5,2>5[8:1],,,1,2,,7,,6/8-4[8:1],,5,,7,,3,1,2>6[8:1],,4/8,,2,,,7,7h[8:1],,5,,4h[8:1]/6,,,3,4h[8:1],,,,5x/7x-5[8:1],,4/8,,7/3,,2,2,4,,6,5,7,7,5,5,3h[8:1],,,1h[8:1]/2,,2,8-4[8:1],,1-5[8:1]/7,,8>3[8:1],,1,,8,,4x,,5/6,,3/7,,6,5,7,3,4,2,8,,3x/4x,,
{8}5h[16:1]/6,5h[16:1]/7,5h[16:1]/8,5h[16:1]/1,{2}5h[1:1]/2b<2[1:1],,,
{8}4h[16:1]/3,4h[16:1]/2,4h[16:1]/1,4h[16:1]/8,4/7b>7[1:1],,,4,,5,5h[2:1],,,,,,
{8}1h[16:1]/2,1h[16:1]/3,1h[16:1]/4,1h[16:1]/5,{2}1h[1:1]/6b<6[1:1],,,
{8}8h[16:1]/7,8h[16:1]/6,8h[16:1]/5,8h[16:1]/4,{2}8h[1:1]/3b,{4},{24}E3,E2,E1,E8,E7,E6,E5,E4,E3,E2,E1,E8,E7,E6,E5,E4,E3,E2,E1,
