&title=ガラクタロード
&artist=初星学園/「学園アイドルマスター」より
&first=0.45
&des_5=Ragna
&lv_5=13
&des=Ragna
&wholebpm=140
&demo_seek=27.6
&demo_len=0.85
&inote_5=(140){4}
1x-7-3-5[2:1]/Ch[2:1],,,
,,,,
,,,,
,,,,
,,,,
{16}
2x,4x,3x,4x,2x,,7x,5x,6x,5x,7x,,34,,2,,
17,,35,,28,,46,,1bq5[8:1]b/7b-3[8:1]b,,,,1b/7b`Cf,,,,
2x/6x,,3,5,4,6,3,5,2h[16:3],,,4h[16:3],,,5>1[16:4],,
,,E1,E8,E7,E6,E5h[8:3],,E2,E3,E4,,E2,E3,E4,,
2x/6x,,3,5,4,6,3,5,2h[16:3],,,7h[16:3],,,8b>4[16:4],,
,,E5,E6,E7,E8,E1h[8:3],,E3,E4,E5,,E3,E4,E5,,
2x/6x,,3,5,4,6,3,5,2h[16:3],,,4h[16:3],,,5>1[16:4],,
,,E1,E8,E7,E6,E5h[8:3],,E1,E2,E3,,E1,E2,E3,,
2x,4x,3x,4x,2x,,7x,5x,6x,5x,7x,,34,,2,,
18,,65,,18,,34,,1bq5[8:1]b/7b-3[8:1]b,,,,1b/7b`Cf,,,,
2x,,2h[4:1],,7pp2[8:3],,7,,E3,,,E4,,,E5,,
,,48,,47,,46,,4/5w1[8:1]*w1[8:1],,37,,,,,,
3,,3h[4:1],,7z3[8:3],,7,,E4,,,E3,,,E2,,
,,65,,54,,34,,2/5w1[8:1],,16,,,,,,
7,,7h[4:1],,5v3>7[8:3],,5,,E8,,,E7,,,E6,,
,,,,5bw1[4:1]b/6b,,,,,,,,,,,,
7bh[8:3]/B3/B4/E4,,,,,,,,1b/B7/E7/B6,,,8b/B3/B4/E4,,,2bq6^7p3[2:1]/E5/B4/B5,,
,,,,,,,,,,,,C,,,,
2h[8:5],,,,4,,,,4-6[8:1],,4-2[8:1],,,,,,
7h[8:5],,,,5,,,,5qq6z2[4:3],,5,,,,,,
8h[4:1],,,,,,,,5h[4:1],,,,C,,,,
7b/4b,,,2b/6b,,,{96}1b/8b,E1f,E8/E2/B7/B2,C,E7/E3,B6/B3/E6/E4,E5,,,,,,{16},,,,,,,,
8h[8:4],,5,,4,,3,,2h[8:4],,7,,6,,5,,
4pp8[8:2],,,,,,2x,3x,4xh[4:1],,,,B7,,,,
4^2[8:1],,,,5^7[8:1],,,,4^1[8:1],,,,5^8[8:1],,,,
4-2[8:1],,3,,5-7[8:1],,6,,4-1[8:1],,3,,5-8[8:1],,6,,
2-4[8:1],,3,,2/7-3[8:1],,6,,7/1-5[8:1],,2,,1/8-6[8:1],,7,,
8/1^4[8:1],,3,,1/8^5[8:1],,6,,8/1-5[8:1],,3,,1/8<1[2:1]b,,6h[8:7],,
,,,,,,,,,,,,D1/A8/A1/B8/B1,,,,
6bxv1[8:1]/4bxv1[8:1],,,,64,,,,28,,3>6q4-1[8:5]/7,,46,,5h[4:1]/3,,
,,,,4h[8:1],,,,5h[4:1],,1bx,,1bx,,,,
3-8[8:1]/7-4[8:1],,,,37,,,,15,,6pp4^3[8:3]/2,,51,,2h[4:1]/6,,
,,,,1h[8:1],,,,B2/4h[8:1],,,,B7/5h[8:1],,,,
3xv1[8:1]/5xv7[8:1],,,,3bx/5bx,,,,26,,3/5-3-8[16:3],,46,,7h[4:1]/5,,
,,,,61,,5,,83,,4,,2b/7b,,,,
3,4,2,4,1,,6,5,7,5,8,,3,6,4,5,
1,,3h[8:1]/4h[8:1],,,6h[8:1]/5h[8:1],,,1s5[12:1]b/8,,27,,1b/8b,,,,
3x/B5,,3/B6,,3/B7,,3/B8,,2,1,,38,,,,,
6/B4,,6/B3,,6/B2,,6/B1,,7,8,,6h[16:3]/1,,,C,,
8<4[4:1],,,,4>8[4:1],,,,8^5[16:3],,,,4h[2:1],,,,
{32}
E5,E4,E3,E2,E1,E8,E7,E6,{16}E5,,,,
3bx/E7,E8,A8,,3bx/E7,E8,A8,,
2x/B8,,2/B7,,2/B6,,2/B5,,3,4,,25,,,,,
7/B1,,7/B2,,7/B3,,7/B4,,6,5,,7h[16:3]/4,,,C,,
8^5[8:1],,1^4[8:1],,8,,1,,8,,6,5,,3,4,,
1b/2b,,7b/8b,,6b/5b,,3b/4b,,1bq5[8:1]b/7b-3[8:1]b,,,,1b/7b`Cf,,,,
E
