&title=Recollect
&artist=鈴木このみ feat. Ashnikko
&first=0.486
&des=爱姬多娜
&wholebpm=145.000
&lv_5=13+
&des_5=爱姬多娜
&inote_5=(145)
{8}1>8[4:6],,,7,,,5,,,3,3,,,,1-5[8:1],,
{4}1<4[8:1],3,5-1[8:1]/2-8[8:1],,
{4}7bv5[16:3]/3b,5q2[16:3],4-1[8:1],4b,
{16}45,,,3,4,,3h[8:4],,5,,,4,,,5,,
{16}46,,7,,5>1[4:1],,6,,{4},,
{16}34,,,6,5,,7h[8:4],,4,,,5,,,4,,
{16}63,,2,,4z8[4:1],,3,,{4},,
{16}7h[16:3]/5,,,8,6,,3V52[4:1],,1,,,7,,,6,,
{16}3h[16:3]/4,,,1,2,,7V58[4:1],,1,,,3,,,4,,
{16}36,,,2,4,,5<4[8:3]/6,,7,,8h[8:3],,,,,,
{8},6,5,4,3,4,5-1[8:1],6,
{8}7bV53[16:3],,4,2,8V64[16:3],,5,3,
{8}1V75[16:3],,6,4,2v5[8:1]*-6[8:1],,,,
{8}7h[4:1],1,5h[4:1],2,4h[4:1],3,1<6[8:1],,
{8}5-1[8:1],5,2>5[8:1],2,8-3[8:1]*-5[8:1],,,,
{8}2bV46[16:3],,5,7,1V35[16:3],,4,6,
{8}8V24[16:3],,3,5,7v4[8:1]*-3[8:1],,,,
{8}2h[4:1],8,4h[4:1],7,5h[4:1],6,8-5[8:1],,
{8}8b-3[8:1],1,8bw4[8:1],7,8b,,{4}4-1[8:1]/5-8[8:1],
{8}4b/5b<4[4:6],,,3h[4:1],,,1h[4:1],,,7h[4:1],,,5,,5-1[8:1],,
{16}6,,7,7h[16:3],,,{8}3,4>1[8:1]/8<5[8:1],,4-8[8:1],,
{16}3,,2,2h[16:3],,,{8}6,1-6[8:1]/7-3[8:1],,1b/7b,,
{16}54,,6,,5,,7,7,,6,8,,71,,,,
{16}45,,3,,4,,2,2,,3,1,,28,,{8}7-5[8:1],
{8}4-8[8:1],7,4-2[8:1],5-1[8:1],4,5,2,1,
{12}3b,3,3,7b,7,7,{4}5w1[8:1],,
{4}6<1[8:1]/4,{32}1b,2,3-7[32:3],4,{8},{16}4-1[8:1],,,5,4,,6,,
{4}3>8[8:1]/5,{32}8b,7,6-2[32:3],5,{8},{16}5-8[8:1],,,4,5,,3,,
{8}2-5[8:1]/7-4[8:1],18,{4}27,{16}63,,5,4,7V51[4:1],,8,,
{8}1bV37[4:1],,,,5,46,3/7>2[8:1],1,
{8}5-1[8:1],4,3b<6[8:1],,7,8,26,5pp1[32:15]/1,
{4}4qq8[32:11],,,{8}63,5-2[8:1]/8-3[8:1],,58,
{8},24,8,57,1-3[8:1],3,
{8}5b-7[8:1],7,8b-4[8:1],2,4bw8[8:1],6,,,
{32}1b<6[8:1]/7b,2,3,4,{8},{32}2b,3,4,5,{8},{16}78,,2,4,,6,5,,
{8}4/5-8[8:1],5/6-3[8:1],,,{16}1,1,1,1,{8}1,28,
{32}8b>3[8:1]/2b,7,6,5,{8},{32}7b,6,5,4,{8},{8}2/1-5[8:1],4,13,2,
{8}7/8-4[8:1],5,86,7s3[16:3],,2,4>1[8:1]*<7[8:1],,
{4}4bw8[8:1],4b,{16}3,7,5,7,2,6,5,6,
{16}1,5,4,5,7,5,4,5,{24}6-2[8:1],7,8,1,2,3,{4}4,
{16}5b/7b,,{24}2,3,4,{8}1b/5,{24}7,6,5,{8}8bz4[8:1]*-4[8:1]/4,17,{4},
{16}2b,2,6,6,4b,4,8,8,{32}1b,2,3,4,5,6,7,8,1b,2,3,4,5,6,7,8,
{4}1>8[8:9],,,,,,1>8[8:9]*>8[8:9],,,,,,
{4}1b-5[8:1],2b-6[8:1],3bw7[8:1],,
{24}1-5[8:1],5,1,5-1[8:1],1,5,{4},8b,{8}36,18,
{8}4-2[8:1]/3,4,4/5-1[8:1],5,5/6>3[8:1],6,67,7pp2[8:3],
{4}7h[4:1],,{8}5-8[8:1],4-1[8:1],5,4,
{8}7,67,65,45,4b-8[8:1]/3,3b-6[8:1]/2,1b-5[8:1],3b,
