&title=DENGEKI Tube
&artist=BACO
&des=Bigwoof
&first=-1.35
&lv_5=14+
&lv_7=藏
&des=
&inote_5=(155){1},
{16}4,,,,4,,5,,4,,,,4,,5,,
4,,,,4,,5,,4,,,,4,5,,5,
4,,,,4,,5,,4,,,,4,,5,,
4,,,,4,,5,,4,,,,4,5,5,5,
,,2,3,4,3,4,2,4,1,4,8,4,7,4,6,
4,,,,4,,5,,4,,,,4,6,,5,
4,,,,4,,5,,4,,,,4,,6,,
4,,,,4,,5,,4,,,,4,6,5,5,
Cf,,7,6,5,3,5,2,5,1,5,8,5,7,5,6,
5,6,5,6,5,7,5,8,5,1,5,2,5,3,5,4,
5,,,,4,,5,,4,,,,4,,3,,
4,,,,4,,5,,4,,,,4,6,5,6,
,,3,2,1,2,1,3,1,4,1,5,1,6,1,7,
1,8,1,2,1,2,1,2,1,8,1,7,1,6,1,5,
1,,,,1,,8,,1,,,,1,,1,,
1b,8,8,8,7b,8,8,8,2b,8,8,8,{24}6b,8,6b,8,6b,8,
{16}Cf,,7,7,1,5,3,5,8,5,2,5,1,5,3,5,
2,5,4,5,1,5,3,5,8,5,2,5,1,5,3,5,
2,5,1,5,8,5,7,5,6,5,5,5,4,5,3,5,
2,5,3,4,2,5,3,4,2,2,8,8,1,1,7b,,
,,2,2,8,4,6,4,1,4,7,4,8,4,6,4,
7,4,5,4,8,4,6,4,1,4,7,4,8,4,6,4,
7,4,8,4,1,4,2,4,3,4,4,4,5,4,6,4,
7,4,6,5,7,4,6,5,7,7,8,8,1,1,2b,,
,,B1,5,B8,5,2,5,B3,5,1,A6,2,B6,3,E7,
2,A6,1,D7,8,5,2,5,3,5,2,5,1,5,2,5,
3,5,B4,5,B6,5,5,5,B1,5,2,B6,2,E5,2,E8,
2,C,2,B6,2,4,2,6,3,3,7,7,5,5,1b,,
,,B8,4,B1,4,7,4,B6,4,8,A3,7,E3,6,B3,
7,D3,8,A3,1,4,7,4,6,4,7,4,8,4,7,4,
6,4,B5,4,B3,4,4,4,B8,4,7,B3,7,C,7,E2,
7,E5,7,B3,7,7,6,6,5,5,4,4,3,3,2,2,
1bv4[8:1],,8,,1,,,,7h[8:1],,,1v3[8:1],,7-4[8:1],,1<3[8:3]b,
,7-5-3-1[8:3]b,,1,,5,,,8,8-6>5[8:1],,8-2>3[8:1],,8x,,8x,
,,7bh[8:1],,,,,,2h[8:1],,,8v6[8:1],,2-5[8:1],,8-2-4-6[8:3]b,
,2>8[8:3]b,,8,,4,,,1,1>2-4[8:1],,1<8-6[8:1],,1x,,1x,
,,2bh[8:1],,,,,,7h[8:1],,,1v2-4[4:1],,8-6>4[8:1],,1,
,8pp4[4:1]b,,,,8,,,8,8<5[8:1],,8>3[8:1],,8x,,8x,
,,7bh[8:1],,,,,,2h[8:1],,,8-6v5[4:1],,1>3-5[8:1],,8,
,1qq5[4:1]b,,,,1,,,1,1>4[8:1],,1<6[8:1],,1x,,1x,
{4}5,5,5,5,
{16}2/6,3,4,5,2/6,3,4,5,2/6,7,8,1,2/6,7,8,1,
{4}2b/6b,5,5,5,
{16}4/8,7,6,5,4/8,3,2,1,4/8,5,6,7,4/8,1,2,3,
{4}4b/8b,1,1,1,
{16}3/7,6,5,4,3/7,6,5,4,3/7,2,1,8,3/7,2,1,8,
{4}3b/7b,1,1,1,
{16}1/5,2,3,4,8/5,1,2,3,4/7,8,1,2,{32}3/6,7,8,1,2,3,4,5,
{4}1bh[2:1]/6b,,5h[4:1],1h[2:1],
,6h[4:1],1h[2:1],,
7h[4:1],{8}1h[8:1],7h[4:1],,1h[8:1],8h[4:1],,
2h[4:1],,6h[4:1],4h[8:1],{16},,6,4,6,4,6,4,
5,4,5,4,{24}5,4,5,4,5,4,{32}5,6,7,8,1,2,3,4,5,6,7,8,1,2,3,4,
1/5,8,7,6,5,4,3,2,1,8,7,6,5,4,3,2,{16}1/5,6,7,8,1,2,3,4,
{8}5h[2:1],,2,3,,2,5h[16:3],{16}4,,
{24}4,5,4,5,4,5,{16}4,5,4,5,4,3,2,1,8,7,6,5,
{4}4bh[2:1]/7b,,8h[4:1],4h[2:1],
,8h[4:1],3h[2:1],,
8h[4:1],{8}2h[8:1],8h[4:1],,2h[8:1],8h[4:1],,
1h[4:1],,7h[4:1],1h[8:1],{16},,7,1,7,1,7,1,
8,1,8,1,{32}7,6,5,,1,2,3,,8,7,6,,2,3,4,,7,6,5,,8,7,6,,
2,3,4,,1,2,3,,8,7,6,5,4,3,2,1,{16}8/4,5,6,7,8,1,2,3,
4b/8b,,1b/5b,,B1,B5,,8bh[8:1]/4bh[8:1],,,7b/3b,,6b/2b,,5b/1bh[16:5],,
5h[16:1],,5h[16:1],,{24}5,1,5,1,5,1,{16}5,1,5,1,{48}5,6,7,8,1,2,{8}3bh[8:1],
{4},,1,1,
,2,2,,
3,{8}3,3,,4,4,,
5,,6,6,,{16}8,7,8,7,8,7,
1,7,1,7,8,8,8,8,{32}1,2,3,4,1,2,3,4,1,2,3,4,1,2,3,4,
8,1,2,3,8,1,2,3,8,1,2,3,4,5,6,7,{16}5/8,4,3,2,1,8,7,6,
{8}5h[2:1],,3,3,,2,2,,{24}1,4,1,4,1,4,{16}1,4,1,4,1,8,7,6,5,4,3bh[8:1],,
{4},,8,8,
,7,7,,
6,{8}6,6,,5,5,,
4,,3,3,,{16}8,1,8,1,8,1,
{16}8,8,8,8,{32}7,6,5,4,7,6,5,4,8,7,6,5,8,7,6,5,8,1,2,3,8,1,2,3,
{24}8,7,6,5,4,3,2/8,3,4,5,6,7,8/1,2,3,4,5,6,7/1,6,5,4,3,2,
{16}5b/1b,,8b/4b,,B8,B4,,1bh[8:1]/5bh[8:1],,,2b/6b,,3b/7b,,4b/8bh[16:5],,
4h[16:1],,4h[16:1],,{24}4,8,4,8,4,8,{16}4,8,5,1,4,8,5,1,
4bh[16:1],,,4bh[16:1],,,4bh[16:0],,,4bh[16:0],,,4b,,4b,4b,
4b/Cf,,7,7,1,5,2,5,3,5,4,5,8,5,1,5,
2,5,3,5,4,5,1,5,2,5,3,5,4,5,3,5,
2,5,1,5,8,5,7,5,6,5,5,5,{32}4b,,5,,3b,,5,,
2b,,5,,1b,,5,,2b,,5,,3b,,5,,2b,,5,,1b,,5,,8b,1,2,3,4/6,,,,
{16},,2,2,8,4,7,4,6,4,5,4,1,4,8,4,
7,4,6,4,5,4,8,4,7,4,6,4,5,4,6,4,
7,4,8,4,1,4,2,4,3,4,4,4,5b,,,,
{32}4,3,2,1,4,3,2,1,4/8,7,6,5,8,7,6,5,1,8,7,6,1,2,3,4,5,6,7,8,1/5,2/6,3/7,4/8,
{1}5b/1bs5-1[4:3]b,
E
&inote_7=(155){1},
{16}4,,,,4,,5,,4,,,,4,,5,,
4,,,,4,,5,,4,,,,4,5,,5,
4,,,,4,,5,,4,,,,4,,5,,
4,,,,4,,5,,4,,,,4,5,5,5,
,,2,3,4,3,4,2,4,1,4,8,4,7,4,6,
4,,,,4,,5,,4,,,,4,6,,5,
4,,,,4,,5,,4,,,,4,,6,,
4,,,,4,,5,,4,,,,4,6,5,5,
Cf,,7,6,5,3,5,2,5,1,5,8,5,7,5,6,
5,6,5,6,5,7,5,8,5,1,5,2,5,3,5,4,
5,,,,4,,5,,4,,,,4,,3,,
4,,,,4,,5,,4,,,,4,6,5,6,
,,3,2,1,2,1,3,1,4,1,5,1,6,1,7,
1,8,1,2,1,2,1,2,1,8,1,7,1,6,1,5,
1,,,,1,,8,,1,,,,1,,1,,
1b,8,8,8,7b,8,8,8,2b,8,8,8,{24}6b,8,6b,8,6b,8,
{16}Cf,,7,7,1,5,3,5,8,5,2,5,1,5,3,5,
2,5,4,5,1,5,3,5,8,5,2,5,1,5,3,5,
2,5,1,5,8,5,7,5,6,5,5,5,4,5,3,5,
2,5,3,4,2,5,3,4,2,2,8,8,1,1,7b,,
,,2,2,8,4,6,4,1,4,7,4,8,4,6,4,
7,4,5,4,8,4,6,4,1,4,7,4,8,4,6,4,
7,4,8,4,1,4,2,4,3,4,4,4,5,4,6,4,
7,4,6,5,7,4,6,5,7,7,8,8,1,1,2b,,
,,B1,5,B8,5,2,5,B3,5,1,A6,2,B6,3,E7,
2,A6,1,D7,8,5,2,5,3,5,2,5,1,5,2,5,
3,5,B4,5,B6,5,5,5,B1,5,2,B6,2,E5,2,E8,
2,C,2,B6,2,4,2,6,3,3,7,7,5,5,1b,,
,,B8,4,B1,4,7,4,B6,4,8,A3,7,E3,6,B3,
7,D3,8,A3,1,4,7,4,6,4,7,4,8,4,7,4,
6,4,B5,4,B3,4,4,4,B8,4,7,B3,7,C,7,E2,
7,E5,7,B3,7,7,6,6,5,5,4,4,3,3,2,2,
1bv4[8:1],,8,,1,,,,7h[8:1],,,1v3[8:1],,7-4[8:1],,1<3[8:3]b,
,7-5-3-1[8:3]b,,1,,5,,,8,8-6>5[8:1],,8-2>3[8:1],,8x,,8x,
,,7bh[8:1],,,,,,2h[8:1],,,8v6[8:1],,2-5[8:1],,8-2-4-6[8:3]b,
,2>8[8:3]b,,8,,4,,,1,1>2-4[8:1],,1<8-6[8:1],,1x,,1x,
,,2bh[8:1],,,,,,7h[8:1],,,1v2-4[4:1],,8-6>4[8:1],,1,
,8pp4[4:1]b,,,,8,,,8,8<5[8:1],,8>3[8:1],,8x,,8x,
,,7bh[8:1],,,,,,2h[8:1],,,8-6v5[4:1],,1>3-5[8:1],,8,
,1qq5[4:1]b,,,,1,,,1,1>4[8:1],,1<6[8:1],,1x,,1x,
{4}5,5,5,5,
{32}4,3,2,1,4/8,3,2,1,4/8,7,6,5,4/8,7,6,5,1/4,8,7,6,1/5,2,3,4,1/5,6,7,8,1/5,2/6,3/7,4/8,
{4}1b/5b,5,5,5,
{32}8,7,6,5,8/4,7,6,5,8/4,3,2,1,8/4,3,2,1,5/8,6,7,8,1/5,2,3,4,1/5,6,7,8,1/5,2/6,3/7,4/8,
{4}1b/5b,1,1,1,
{32}1,2,3,4,5/8,1,2,3,4/7,8,1,2,3/6,7,8,1,2/6,5,4,3,2/7,6,5,4,3/8,7,6,5,4/8,3/7,2/6,5/1,
{4}8b/4b,1,1,1,
{32}5/6,4,3,2,1/8,7,6,5,4/3,2,1,8,5/7,4,3,2,1/5,4,3,2,1/5,6,7,8,2/1,3,4/8,7,6/1,2,3/7,6,
{4}1bh[2:1]/5b,,5h[4:1],1h[2:1],
,6h[4:1],1h[2:1],,
7h[4:1],{8}1h[8:1],7h[4:1],,1h[8:1],8h[4:1],,
2h[4:1],,6h[4:1],4h[8:1],{16},,6,4,6,4,6,4,
5,4,5,4,{32}5,4,5,4,5,4,5,4,5,6,7,8,5,6,7,8,1/5,2,3,4,1,2,3,4,
1/5,6/8,7,,1/5,2/4,3,,1/5,6/8,7,,1/5,2/4,3,,{16}1,8,7,6,5,4,3,2,
{8}1h[2:1],,7,6,,7,5h[16:3],{16}4,,
{32}4,5,4,5,4,5,4,5,{16}4,5,4,5,4,3,2,1,8,7,6,5,
{4}4bh[2:1]/7b,,8h[4:1],4h[2:1],
,8h[4:1],3h[2:1],,
8h[4:1],{8}2h[8:1],8h[4:1],,2h[8:1],8h[4:1],,
1h[4:1],,7h[4:1],1h[8:1],{16},,7,1,7,1,7,1,
8,1,8,1,{32}8,7,6,8,1,2,8,7,6,1,2,3,7,6,5,1,2,3,6,5,4,2,3,4,
1/5,6,7,6,5,4,3,2,1/8,2,3,4,5,6,7,8,{16}1/5,4,3,2,1,8,7,6,
5b/1b,,8b/4b,,B8,B4,,1bh[8:1]/5bh[8:1],,,2b/6b,,3b/7b,,4b/8bh[16:5],,
4h[16:1],,4h[16:1],,{32}4,8,4,8,4,8,4,8,{16}4,8,4,8,{48}4,3,2,1,8,7,{8}6bh[8:1]/5bh[8:1],
{4},,1,1,
,2,2,,
3,{8}3,3,,4,4,,
5,,6,6,,{16}8,7,8,7,8,7,
8,7,{32}8,1,7,6,8,1,7,6,8,8,8,8,1,2,3,1,2,3,1,2,3,1,2,3,8,7,6,8,
7,6,8,7,6,8,7,6,5,4,3,2,1/5,4/8,3/7,2/6,{16}5,4,3,2,1,8,7,6,
{8}5h[2:1],,3,3,,2,2,,{32}1,4,1,4,1,4,1,4,{16}1,4,1,4,1,8,7,6,5,4,3bh[8:1],,
{4},,8,8,
,7,7,,
6,{8}6,6,,5,5,,
4,,3,3,,{16}8,1,8,1,8,1,
{32}8,8,8,8,8,8,8,8,1,2,3,4,1/5,2,3,4,1/5,2,3,4,1/5,2,3,4,1/5,8,7,6,1/5,8,7,6,
1/5,4,3,2,3/8,4,5,6,7/2,3,4,5,6/1,5,4,3,{16}1/2,8,7,6,5,4,3,2,
5b/1b,,8b/4b,,B8,B4,,1bh[8:1]/5bh[8:1],,,2b/6b,,3b/7b,,4b/8bh[16:5],,
4h[16:1],,4h[16:1],,{32}4,8,4,8,4,8,4,8,{16}4,8,5,1,4,8,5,1,
4bh[16:1],,,4bh[16:1],,,4bh[16:0],,,4bh[16:0],,,4b,,4b,4b,
4b/Cf,,7,7,1,5,2,5,3,5,4,5,8,5,1,5,
2,5,3,5,4,5,1,5,2,5,3,5,4,5,3,5,
2,5,1,5,8,5,7,5,6,5,5,5,{32}4b,3,5,,3b,2,5,,
2b,1,5,,1b,2,5,,2b,3,5,,3b,2,5,,2b,1,5,,1b,2,3,4,1/5b,6,7,8,1b/5b,,,,
{16},,2,2,8,4,7,4,6,4,5,4,1,4,8,4,
7,4,6,4,5,4,8,4,7,4,6,4,5,4,6,4,
7,4,8,4,1,4,2,4,3,4,4,4,{32}8b,7,6,,1b,2,3,,
7b,6,5,,2b,3,4,,8b,7,6/1b,2,3/7b,6,5/2b,3,4/8b,7,6/1b,2,3/7b,6,5/2b,3,4/8b,7,6/1b,2,3/7b,6,5/2b,3,
{1}4b/8bz4-8[4:3]b,
E
