&title=sakura fubuki
&artist=kiq
&first=0.049
&des=kiq
&lv_5=14
&des_5=
&inote_5=
(175){4},,,,{1}4h[2:1]/5<7[4:3],
{16},,,,,,,,C,,,,,1>4[16:27],{1},,{8},{1}4h[1:1]/7h[1:1],
{8},,,,8,,,8<5[8:11],
,,,,,,,,,,,,,,,,{4}6/4h[4:5],
6,6,6,
5,5,3/5h[4:1],3,
5/3h[2:3],5,5,5,
4,4,{8},7,6,5,
4/5,3,4/5,6,5/3,8,6/4,1,
7x/8x,6x/1x,5/2,3/4,2x/1x,8x/3x,4/7,5/6,
{16}4,5,3,6,2,7,1,8,2,1,3,8,4,7,5,6,
5,4,3,2,1,8,7,6,5,4,3,2,1,8,{8}7-4[8:1],
8,7b/8-3[8:1],,7/8b,{4}5-2[8:1],{8}6/5b,6-1[8:1],
,6b,{4}2>1[4:1],{8},,,5h[8:3],
,,{4}C,{16}1-5[8:1],8,1,8,,,,,7,
1,7,1,{8}7-3[8:1],2pp3[8:3],,,,,{4}6h[2:1],
4,C,{32}1x,2x,3x,4x,8x,7x,6x,5x,
{4}2b,{16}7,8,7v4[8:1],8,7v2[8:1],,,,,Cf,,,,,,,1-7[8:1],
1,{8}1-5[8:1],,,{4}6b,
{16}3,6,4,7,{4}5<1[4:1],{16},,,,,,,,1,
2,8,3,7,4,6,5,8,1,7,2,6,3,{8}4b/5h[8:1],
,1bq5[8:1]/5bq1[8:1],,5b>1[8:1]/1b<5[8:1],,,,A5/B5/A1/B1/C,
{16},,,,2x,7x,2x,7x,{2}1h[4:1]/8h[4:1],
{8}8/1-5[8:1],2,1/8-4[8:1],7,{4}8/1h[4:1],C,
8<5<8[8:3],8,{16},,,,4,5,4,5,
{4}4>1[2:1],{8}E2,E3,B4,B6,B1,2bh[4:1]/8bh[4:1],
,,,8/2,1-5[8:1],2/8,{4}1,
{16}3,5,3,5<8[16:5],,,,,,,,,,,,,7,
8,6,2,1,3,6,5,7,3,4,2,5,3,6,2,
7,1,8,1,8,1,8,1,8,1,8,7,6,5,4x,3x,
{1}2xh[8:7]/4xh[8:7],
{8},,,,,,,3h[1:1]/5h[1:1],
{1},{4},,,{8},{16}1x,
2x,
{8}3x<8[4:13],,,,,,,6q7[2:1],
,,,,,,,2h[1:1],
,,,,,,,,,,,,,,,,1h[4:1]/8h[4:1],
,,2h[8:1],,3h[8:1],,4h[8:1],
,8,7,6,1,2,3,4h[8:5],
,,,,,6,7,8/1h[2:1],
,,,,{2}5h[4:1]/6h[4:1],
{4}7,7,8,8,
{8}1/8,1,1/2,2,2/3,3,3/4,4/5,
{16}5,4,6,3,7,2,8,1,2,3,4,5,6,7,8,1h[16:9],
,,,,,,,,,,,,{4}1w5[8:1],
1b/Cf,3h[8:1]/7h[8:1],{8},3,4,2h[16:3],
{16},1,2,8,2,7,2,6,2,5,2,4,2,3h[16:5],,,,,{8}1-3[8:1],
8b,1-7[8:1],6b,1-5[8:1],5b,7h[16:3],
{16},6,7,5,7,4,7,3,7,2,6,2,5,2,4,2,
{4}3h[2:1],C,{8},7<2[8:3],1,7,
{32},,,,,,,,,,,,E8,B7,B6,E6,,,,,E2,B2,B3,E4,,,,,{8}Ch[4:1],
,,,4>5[8:5],,2-7[8:1],,,,8,
8,8,{16}1,7,2,6,3,5,{8}4,
6b/4b,{16}6,5,{8}6,5b/3b,{16}3,4,{8}3,7b/1b,2,
1b/7b,6,2,3,4-8[8:1],5<4[8:5],{4}Cf,
{8},,,,,2,1,3h[16:3],
{16},4,3,5,3,6,3,7,3,8,3,1,3,1h[16:5],,,,,,,,,{8}C,
,8-4[8:1],1/7,8h[4:1],
,,{4}4w8[8:1],4b,6h[4:1]/2h[4:1],
{16},,2,6,3,7,4,8,5,1,5,1,5,1,5,{32}1b,8,
7,6,5,4,3,2,1,8,7,6,5,4,3,2,{16}1h[16:5],,,,,,,,,{1}3h[8:7]/5h[8:7],
{8},,,,,,,7<2[2:3],
,,,,,,,5p4[2:1],
{16},,,,,,,,,,,,,,1x,8x,
{8}1x>4[8:7],,,,,,,4<7[1:1],
,,,,,,,7>2[4:3],
,,,,,,,5b,
,,,,,,,,1<7[8:7],
,,,,,,7q3[1:1],
,,,,,,,3<5[4:3],
,,,,,,,2,
{16},,,,,,,,,,,,,,1x,1x,
{8}1x-7[8:7],,,,,,,7-4[1:1],
,,,,,,,4v2[4:3],
,,,,,,,6h[8:7],
{4},,,{32}E2,C,{16}E6,,,{1}1h[1:2]/8h[1:2],
E
