&title=ドロシィの忘れもの
&artist=はるまきごはん
&first=0.01
&des=大令嬢
&lv_5=13+
&inote_5=(125)
{1},
{8},,,,,,
6h[8:11],2h[8:11],,,,,,,,,,,,,
3-5v6[16:18],,2z6[16:14],,,,,,,,,,,
48,6/2<3[8:2],,2qq5[32:20],,,,,,,,
6bh[8:8],4,,5,,4,,5,2hb[8:4],4,,5,7hb[8:4],4,,5,3hb[8:7],4,,5,,4,,5,
{24}3x,5x,4x,6x,,,27,,27,,,4,{8}5-8[16:1],63,C,,
{16}2>5[32:3],,16,,8,,1,,{24}34,,6,5,,,34,,6,5,,,
{16}7<4[32:3],,83,,1,,8,,{24}65,,3,4,,,65,,3,4,,,
{16}2q6[32:3],,16,,8,,1,,{24}24,,7,5,,,24,,7,5,,,
{16}7p3[32:3],,85,,3,,{24}1,,1,4-7[12:1],,4,3-1[12:1],,,,,,,,,
{24}5h[8:2],,,,,,3h[8:2],,,,,,7h[24:5],,,,,8,7,,,6h[8:1],,,2,,,
{8}73,7v5<6[16:3]/3v5<6[16:3],,7>1[12:1]/3>1[12:1],,,,
{24}4h[8:2],,,,,,6h[8:2],,,,,,2h[24:5],,,,,1,2,,,3h[8:1],,,7,,,
{8}82,2/8qq8[16:4],,1q1[16:4],,,,
{24}5h[8:2],,,2,,,3h[8:2],,,2,,,8h[24:3],,,2,,2,8,,,35,,,2,,,
{8}17,1q8[32:7]/6,5,4p5[32:7],,,,
{24}4h[8:2],,,7,,,6h[8:2],,,7,,,1h[24:3],,,7,,7,1,,,6/3h[8:1]
,,,5pp5b[32:8],,,
{24}2xp5b[32:4],,2x,5x>2b[32:5],,,,,,{8},,
5q8[8:12],4,3b,,A1,,A2,,A3,,A4,,A5,,A6,,
5q8[16:22],,A1,,A2,,A3,,A4,,A5,,A6,,7V53[32:4],,8h,,
{24}2h[8:1],,,8,,8,1h[8:1],,,5h[8:1],,,3h[8:1],,,8,,8,1h[8:1],,,5h[8:1],,,
4h[8:1],,,8,,,8<5[12:1],,,,,,8/4>1[12:1],,,,,,45,,,,,,
{8}8/7x-2[12:1],,7x/5,,4/3x-6[12:1],,3x,8b,
7b/5,6b/4,5b/3,4b/2,{24}5bxw1[12:1]/1,62,73,8/4,,,,,,,,,
{24}
3<6[12:1],,6v1[12:1],,,,83,,,,,,
6>3[12:1],,3v8[12:1],,,,16,,,,,,
2q6[12:1],,6v1[12:1],,,,2/7qq4[16:5],,,,,,,,,,,,
8b,,,,,,
3<6[12:1],,6p2[12:1],,,,73,,,,,,
8q5[32:4]*pp2[32:4],,,25,,,,,,,,,
{16}2x/6b-3[32:3],,84,,2b/6x,,8,,7b/3b,,
{24}A6,A5,A4,A3,,1x,,,,
{24}
2>5[12:1],,5-2[32:3],,,,7b/2b,,,,,,
7<3[12:1],,3-7[32:3],,,,17,,,,,,
1>5[12:1],,5-1[32:3],,,,1/8qq8[32:7],,,,,,
,,,,,,
{8}4,8,2>5[12:1]/6-1[12:1],,26,,8-4[12:1]/4-8[12:1],,
8pp3[8:5]/4pp7[8:5],,,,,,,,
7pp2[8:5]/3pp6[8:5],,,,,,,,
6pp1[8:5]/2pp5[8:5],,,,,,,,
,,
8b/A3/E4,1b/A6/E6,7b/D4/E4/A4,2b/D6/E6/A5,{48}1b<6b[32:3]/8b>3b[32:3],,,,,,,,,,,,{8}D1f`A8`A1`E1,,
{16}3x/5x-8[32:3],,6/4,,5b/7,,{24}6,,2,1,,3,5,,8,7,,4,6,,,
{16}7/1-4[32:3],,2/8,,3/1b,,{24}2,,6,5,,7,1,,4,3,,8,2,,,
{16}3/5-8[32:3],,6/4,,7/5b,,{24}6,,2,1,,3,5,,8,7,,4,6,,,
{16}5/1-5[12:1],,2/7,,4/1b,,{24}4,,6,5,,1,2,,4,3-5-1-7-1-5-3[16:24],,7,8,,,,,,,,,,,,
{8},,,
,,,,,,,,
5<4[16:15],5,E1/D1,,,,,,
,,,5,5pp8[8:3],,,,
2-4[12:1],,7-5[12:1],8,2,8,
{24}6v7[32:4],,6,4v3[32:4],,4,,,,{8},,
8,2pp1[32:8],8,6,8,6-8[12:1],,3-1[12:1],4,6,4,
{24}2<7[32:4],,2,6q3[32:4],,6,,,,{8},,
{24}1h[24:3],,4,4,,,8h[24:3],,5,{8}5-8[32:3],1-4[32:3],,,
E1,C,
E2,E3,C,E8,E7,C,E3,E4,C,E7,E6,C,3>1[32:3],,
A5,A6,C,A4,A3,C,A6,A7,C,A3,A2,C,D8,D1,7x/2x,,
{24}3<5[12:1],,,8,,8,3,,,6h[8:1],,,2>4[12:1],,,8,,8,2,,,6-1[32:3],,,
1-6[32:3],,,3,,,3q4[32:8],,,,,,4,,,,,,8,,,,,,
{8}C/7x-3[12:1],,7x/1,,C/3x-7[12:1],,3x,5b,
6b/8,7b/1,8b/2,1b/3,{24}8bx-4[12:1]/4x-8[12:1],73,62,51,,,,,,,,,
{24}
6-4[16:1],,7/4-7[12:1],,,,36,,,,,,
3-5[16:1],,2/5-2[12:1],,,,63,,,,,,
7-4[12:1],,8/4-8[12:1],,,,7/2qq3[32:8],,,,,,
,,,,,,5b,,,,,,
8-3[12:1]/2,,7/3-7[12:1],,,,85,,,,,,
5>1[32:4]*<8[32:4],,,2/4,,,,,,,,,
{16}6x/2b<7[32:3],,48,,6b-3[32:3]/2x,,4,,6b/3b,,
{24}A2,A1,A8,A7,,5x,,,,
{24}
1q5[12:1],,2/5p1[12:1],,,,7b/1b,,,,,,
7p3[12:1],,6/3q7[12:1],,,,17,,,,,,
1-5[12:1],,2/5-1[12:1],,,,1/6qq8[12:3],,,,,,
,,,,,,
{8}2,4,3<6b[12:1]/6-3b[12:1],,63,,7-2b[12:1]/2q7b[12:1],,
2/7<8>7[16:29],,,,,,,,
,,,,,,,,
,,
{24}
5bh[24:5],,,4,,3hx[24:3],,,,4,,,
6h[24:5],,,5,,4hx[24:3],,,,5,,,
7bh[24:5],,,6,,5hx[24:3],,,,6,,,
8bh[24:5],,,5,,4hx[24:3],,,,5,,,
6bh[24:5],,,4,,3hx[24:3],,,,4,,,
7h[24:5],,,3,,2hx[24:3],,,,3,,,
{24}7b,6,5,2,3,4,7h[12:1],,1,,,53,5/3-7[12:1],,,62,,,
4<2<4[32:12],,,,,,1b,,,3,,,5,,,3,,,
6x/1x,,7,4,,,2x/6xz2[32:7],,7,4,,,5b/6b,,,3,,,
1-7-3-5[32:8],,,4,,,
8b/1b,,,6,,,
8-6-1-5[32:9],,,6,,,8b/1b,,,5,,,2,,,4,,,
5x/2x,,3,8,,,6x/2xq3[32:7],,3,8,,,
4,,,6,,,8h[8:2],,,2,,,
4qq3b[8:1]*pp5b[8:1],,35,,35,,,,,,,,
8b,,,64,,,1/2h[24:3],,,4,,,1/7-4[12:1],,6,5,,,2-5[12:1],,,3,,,
1,,,6q3[32:4],,,5/3>7[32:5],,,,,,,,,,,,4qq6[32:8],,53,,53,,
,,,,,,7>6[32:6],,,8,,,5/7-3[32:3],,,,,,8b,,,,,,
{12}16,3,3,14,7,7,85,2,2,8/3v2[16:3],6,6,
{8},,
6v7[16:3],,,,3v2[16:3],,,,
6v7[16:3],,,3,3v2[16:3],,7,,
6v7[16:3],,,4,4>1[12:1],,5/4b<7[12:1],,2/4b-1[12:1],,4b/7,
{24}8,7,6,5,,2,,,,
{24}
2-4-1[48:7]/6-4-7[48:7],,4,,,,2b/6b,,,,,,
6-8-5[48:7]/2-8-3[48:7],,8,,,,62,,,,,,
6V42[48:8]/2V46[48:8],,4,,,,2<1v4[48:7]/6<7v4[48:7],,,,,,
,,,,,,
{8}5,1,7p3[32:3]/3p7[32:3],,7/3,,
6/2q6[32:3],48,2/6q2[8:1],,2q6[8:1],,6q2[8:1],,2q6[8:1],,6q2[8:1],,
2q6[8:1],3,6q2[8:1],7,2q6[8:1],4,6q2[8:1],8,
2q6[8:1],3,6q2[8:1],7,2q6[8:1],4,6q2[8:1],8,
2q6[8:1],3,6q2[8:1],7,2q6[8:1],4,6q2[8:1],8,,
4h[12:1],4>1>4[32:7],,5<8[8:1],8<5[32:3]*-4[32:3],,,,,,,
{1},
