&title=裏切りアリス
&artist=GUMI
&first=-0.92
&lv_5=
&des_5=
&inote_5=
(125){4},
&lv_6=13+
&des_6=TTDT7716
&inote_6=
(153){4},,,,{1}1b<1[4:7],
,5>5[4:7],
,{4}1b<1[4:7],
1,1,1,
8,7,6,5,
4h[8:1],3h[8:1]/5h[8:1],6h[8:1],5h[8:1]/7h[8:1],
1bw5[8:1],1,1b>4[8:1]*<6[8:1],1b-5b[8:1],
{1}1V36[2:3]*V74[2:3],
,6h[4:7]/2qq5[4:5],
{4},,,{8}4,3,
{12}8b/2,3,4,8,7,6,1,2,3,7,6,5,
2,4,3,7,8,6,2,1,3,7,5,6,
3,2,1,5,6,7,4,3,2,6,7,8,
2,3,4,5,6,7,2,3,4,5,6,7,
{4}8b>3[8:1],{8}8/7-4[8:1],6,7/1q5[8:1],{4},{16}8,7,
{4}6-8[8:1],{8}6/1-5[8:1],2,{4}1/3h[4:1],{8}6,7,
{4}8<5[8:1],{8}3,2,{4}1>4[8:1],{8}5,6,
{4}7h[8:7]/5pp5[4:1],5qq5[4:1],{2},{4}1bV37[4:1],
{8}1,6,{4}6,{8}3-1[8:1],{16}5,6,
{4}7h[4:1],{8}2,1,{4}8p6[8:3],{8}4,3,
{4}2>5[4:1],5<8[4:1],8>3[4:1],{8}5,6,
{4}7b-4[8:1],7b/5-2[8:1],5b/3-8[8:1],3b/1-6[8:1],
{2}1b/3h[2:1],4h[2:1],
5h[2:1],{4}6h[4:1],7h[4:1],
{8}8,8,1/7,1/7,{16}2,6,2,6,1,5,1,5,
{24}2b,3,4,8,7,6,{32}2,3,4,5,6,7,8,1,{4}2b-7[8:1]/6b-3[8:1],{16}2b/6b,Cf,{8},{4}8x/1xq5[8:1],
1/6-8[8:1],{16}6/2>5[8:1],{8},{16}1h[16:3],{4}2b,
{8}2/8-6[8:1],1,8/2-8[8:1],3,{4}2/4p2[8:3],{8}7,8,
{4}1<6[8:1],{8}2,1,{4}8>3[8:1],{8}5-7[8:1],5,
1-6[8:1],2-5[8:1],1>7[8:3],2,1x,8x,{4}8x,
5v8[8:1],5b/2-7[8:1],{16}2/6<1[8:1],{8},{16}8h[16:3],{4}6,
{8}7/2-8[8:1],3,2/4-6[8:1],5,{4}4/1s5[16:3],{8}8,7,
{4}6z2[16:3],{8}6,5,{4}4-8[8:1],{8}4,5,
{4}6s2[8:3]/1s5[8:3],{2},{4}1w5b[8:1],
{16}1b>8[2:3]*<2[2:3],Cf,{1},{4},,,{8},{1}3h[4:7]/5pp2[4:5],
{4},,,{8}1,8,
{4}3/7b-4[8:1],7/1-5[8:1],5-7[8:1]/1-3[8:1],5/1w5[8:1],
1-7[8:1],1/5-2[8:1],5-1[8:1]/6-8[8:1],6>3[8:1],
6/2<7[8:1],2/5-1[8:1],5-8[8:1]/2-5[8:1],5/2-6[8:1],
1q5[8:1]/2>4[8:1],1/2<7[8:1],2/5h[4:1],{32}E4,E5,E6,E7,E8,E1,E2,E3,
{16}E4/8bx-6[8:1],{8},{16}1h[16:3],{4}8,{8}3h[4:1]/5<8[8:1],{4},{16}1,2,
{4}3>8[8:1],{8}4,5,{4}6<1[8:1],{8}2-4[8:1]*-5[8:1],3,
{4},{8}6-1[8:1]*-8[8:1],7,{4},{8}5V71[4:1],3,
{4}1V35[4:1],5qq2[8:3]*pp8[8:3],{2},{4}1b-5[8:1],
{8}6,7,8h[4:1]/6>3[8:1],{4},{16}7,6,
{4}5-3[8:1],{8}5/8<5[8:1],1,{4}8/2q4[8:3],{8}6,7,
{4}8>3[4:1],3<6[4:1],6<1[4:1],{8}2,3,
{4}4b-2[8:1]*-1[8:1],4b-6[8:1]*-7[8:1],4b-8[8:1],{8}4b,6,
{2}5h[4:3],3h[4:3],
1h[2:1],{4}7h[4:1],6h[4:1],
{8}5,5,4/6,4/6,{16}3,7,3,7,2,6,2,6,
{24}3b,4,5,8,7,6,{32}1,8,7,6,5,4,3,2,{4}1bv4[8:1]/5bv8[8:1],{16}1b/5b,Cf,{8},{16}2-5[8:1],
1,3,8,{8}2b,6,{16}7-4[8:1],8,6,1,{8}7b,3,
5/6,8,4/3-7b[8:1],1h[8:3],{4}3,{8}8<5[8:1],1,
{4}8/2h[4:1],{8}1>4[8:1],8,{4}1/7,{8}7-5[8:1],2-4[8:1],
7,2,8-4[8:1],1-5[8:1],8pp6b[4:1],1,{32}8b,{16},,,{32}A6f,
{16}4-8[8:1],5,3,6,{8}4b,7,{16}5-1[8:1],4,6,3,{8}5b,2,
{4}4p8[8:1]/8p4[8:1],8>3[8:1]/4<7[8:1],4b/8b,{8}7/5<8[8:1],4,
{4}5/3h[4:1],{8}4>1[8:1],5,{4}4/6,{8}6/8-4[8:1],1/7,
{1}2bh[1:1]/8bV26-4b[8:5],
Cf,
{8}E7,E6,E3,E4,{16}E1,{8},{16}C,{8},{16}E8,E1,
{8}E2,E4,E6,E5,{4}Ch[2:1],{8}A1,D1,
{4}A8,{48}E7,B6,{24}B5,{16},,{24},{4}4h[2:1],5h[4:1],
{64},E6/B5/B4/E4,B3,B6,B2,B7,E2,E8,{8}8xh[8:1]/1x>6[8:5],{4},8,8,
8<3[8:5],1,1,1,
8h[8:1]/1pp3<5[8:5],7h[8:1],6h[8:1],7h[8:1],
8qq6>4[8:5]/1b-3[8:1],1b,3b-1b[8:1],3b,
{8}7b/8b,{16}6,4h[8:1],,5,{8}3h[8:1],4<7[8:1],2,4>1b[8:1],3,
4b,{16}6,8h[8:1],,7,{8}1h[8:1],{4}8-3[8:1]*-5[8:1],8-4b[8:1],
{8}8b,{16}2,5h[8:1],,3,{8}6h[8:1],4>1[8:1],7,4<7b[8:1],5,
{4}4b,{32}8x,7xh[32:7],{16},,,{32}1x,2x,{16}3xh[16:3],,,{48}8x,7x,6x,5xh[16:3],{16},,{24},{16}3b,
4,2,5,{8}1,{16}7,8,6,1,{8}5,{16}2,4,{8}3,
{16}7b,8,6,1,{8}5,{16}3,4,2,5,{8}1,{16}6,8,{8}7,
{16}1b,5,2,6,3,7,4,8,5,1,4,8,3,7,2,6,
{24}1b,5,1,5,1,5,{64}D2,A2,D3,A3,D4,A4,D5,A5,D6,A6,D7,A7,D8,A8,D1,A1,{4}5bxw1b[8:1],Cf/B5/A5/B1/A1,
3-8[8:1]/7-4[8:1],3b/7b,{8}2/8<5[8:1],{16}7,1,{8}8b,4h[8:1],
5-8[8:1],6,5-2[8:1],4,5,{24}1x,8x,7x,{8}6x/5x>2[8:1],4,
{4}5/8<5[8:1],{8}8b/3-7[8:1],4,{4}3/5>2[8:1],{8}5b/8,7,
3/6-4[8:1],4-8[8:1],6,3,2-7[8:1]*-5[8:1],1,{4}A2f,
5b>2[8:1]/8b<5[8:1],5b/8b,{8}7/1-5[8:1],{16}2,8,{8}1b,6h[8:1],
4>1[8:1],3,4<7[8:1],5,4,{24}8x,1x,2x,{8}3x/4x-7[8:1],5,
{4}4/1-4[8:1],{8}1b/6-2[8:1],5,{4}6/4<7[8:1],{8}4b/2,1,
{1}2z6[2:1]/8s4[2:1],
{16}7b-4[8:1],8,6,1,{8}7b,3h[16:1],{16}2b-5[8:1],1,3,8,{8}2b,6h[16:1],
7/8h[8:1],4,1h[8:1]/2-6b[8:1],5,{4}2b/8h[4:1],{8}1>4[8:1],8,
{4}1b/7h[4:1],{8}8b<5[8:1],1,{4}8b/2h[4:1],{8}8-4[8:1],7-5[8:1],
8-2[8:1],7-3[8:1],8<1b[8:3],7,8bx,1bxs5b[4:1],{4}1bx,
Cf/8bxw4[8:1],8b,{8}7/1>4[8:1],{16}2,8,{8}1b,5,
1/7-4[8:1],6,7/1-6[8:1],2,{4}1/3-8[8:1],{8}3/4<7[8:1],5,
{4}4/1>4[8:1],{8}1b/6-2[8:1],5,{4}6/3-7[8:1],{8}3b/1b-6[8:1]*-4[8:1],8,
{1}1bqq3[4:3],
5b,
&lv_7=
&des_7=
&inote_7=
(125){8},8,
