&title=少女レイ
&artist=みきとP feat.初音ミク
&first=0
&des=woxxow
&lv_5=12
&inote_5=(150)
{1},
{16},,,,,3^6[8:1]/6-3[8:1],,,,,,,,,,,
{16}3h[4:1]/5,,,,4,,,,5,,3,,5,,2,,
{16}4h[16:3],,,3,,,34,,2/5h[4:1],,,,1,,,,
{16}6h[4:1]/4,,,,5,,,,4,,6,,4,,7,,
{16}5h[16:3],,,6,,,65,,7/4h[4:1],,,,8,,,,
{16}3h[4:1]/5,,,,4,,,,5,,3,4,3,,2,,
{16}4h[16:3],,,2,,,24,,35,,,3,4,,2,,
{16}6h[4:1]/4,,,,5,,,,4,,6,5,6,,7,,
{16}5h[16:3],,,7,,,75,,46,,{24},5,6,{16}5-7[8:1],,,,
{16}4,,,,7-5[8:1]/4h[4:1],,,,,,,,5-7[8:1]/4h[4:1],,,,
{16},,,,7-4[8:1]/4h[4:1],,,,,,,,2-8[8:1]/4h[4:1],,,,
{16},,,,8-2[8:1]/4h[4:1],,,,,,,,2-8[8:1]/4h[4:1],,,,
{16},,,,8-4[8:1]/4h[4:1],,,,,,,,5-8[8:1]/4h[4:1],,,,
{16},,,,8-5[8:1]/4h[4:1],,,,,,,,5-8[8:1]/4h[4:1],,,,
{16},,,,8-4[8:1]/4h[4:1],,,,,,,,2-5[8:1]/4h[4:1],,,,
{16},,,,5-2[8:1]/4h[4:1],,,,,,,,2-7[8:1]/4,,,,
{16}6-3[8:1],,,,1-5[8:1],,,,1,,,,,,,,
{16}4h[16:3]/7,,,6,4,,5,,34,,2,1,2,,7,,
{16}4/5h[16:3],,,3,4,,2,,4/5h[8:1],,,3,4,,2,,
{16}7h[4:1],,,,5h[4:1],,,,8h[4:1],,,,3h[4:1],,,,
{16}1<5[4:1],,,,5qq6[8:3]*>1[4:1],,5,,,,,,,,,,
{16}5h[16:3]/2,,,3,5,,4,,65,,7,8,7,,2,,
{16}5/4h[16:3],,,6,5,,7,,5/4h[8:1],,,6,5,,7,,
{16}2h[4:1],,,,4h[4:1],,,,1h[4:1],,,,6h[4:1],,,,
{16}8-4[8:1],,,,6-2[8:1],,,,3,,5,,7,,1,,
{16}8-5[2:1],,,,,,,,,,,,,,,,
{16}1-4[2:1]*-4[2:1],,,,,,,,6,,,,,,,,
{96}6pp4[2:1],4qq5[2:1]*qq5[2:1],,,,,{16},,,,,,,,,,,,,,,
{16}5h[4:1],,,,3h[4:1],,,,1h[4:1],,,,7h[4:1],,,,
{16}5,,3,,1^6[8:1],,7^4[8:1],,5^2[8:1],,3,,8-4[8:1],,,,
{16}8b/1,,,3,5^2[8:1],,6,,57,,,,8-4[8:1],,7,,
{16}86,,,5,3^8[8:1],,4,,3/4-8[8:1],,,,1,,2,,
{16}3qq4[4:1],,,,36,,,,7qq8[4:1],,,,47,,,,
{16}2pp1[4:1],,,,1<2[32:11]/2,,8,,7h[4:1],,,,,,8,,
{16}1/7,,,6,4^7[8:1],,3,,42,,,,1,,2,,
{16}3/8-3[8:1],,,7,8v5[8:1]*p4[8:1],,6,,8,,,,5^7[8:1],,,,
{16}5/4^1[8:1],,,,4/8-4[8:1],,,,2^4[8:1]/8^5[8:1],,,,82,,,,
{16}2/6,,,4,5pp8[8:3],,4qq1[4:1]*qq1[4:1],,,,,,,,,,
{16}2b/7b,,,6,4^7[8:1],,3,,42,,,,1-5[8:1],,2,,
{16}13,,,4,6^1[8:1],,5,,6/5-1[8:1],,,,8,,7,,
{16}6V47[32:7],,,,6/4,,,,2V41[32:7],,,,52,,,,
{16}8-3[8:1],,,,8/3>6[16:5],,4,,4-8[8:1],,,,4,,,,
{16}6/2^5[8:1],,1,,8qq8[4:1],,7,,4h[4:1],,,,,,7,,
{16}6-1[8:1]/1,,,3,,,4,,5-1[8:1]/8,,,7,,,6,,
{16}2-5[8:1],,,4,2,,6,,71,,2,,34,,2,,
{16}7-4[8:1],,,5,7,,3,,28,,7,,65,,4,,
{16}3bz7[4:30]/6bs2[4:20],,,,,,,,,,,,,,,,
{16},,,,,,,,,,,,,,,,
{16},,,,,,,,,,,,,,,,
{16},,,,,,,,,,,,,,,,
{16},,,,,,,,,,,,,,,,
{16},,,,,,,,,,,,,,,,
{16},,,,,,,,,,,,,,,,
{16},,,,,,3-6[8:1],,,,,,,,,,
{16},,,,,,,,,,,,45,,{24}3,4,5,
{16}6,,2,,38,,,6,5,,2,,3h[4:1]/4,,,,
{16}4,5,6,7,82,,,3,4,,7,,5h[4:1]/6,,,,
{16}8,,2,1,2,,6,8,6,,2,4,3h[4:1],,5,,
{16}7h[8:1],,5,,46,,3,3h[8:1],,1,1h[8:1],,8,,6,8,
{16}6,,1,,37,,6,5,7h[8:1],,5h[8:1],,3h[8:1],,4h[8:1],,
{16}5h[8:1],,3h[8:1],,4h[8:1],,3,2,1,,28,,3h[4:1]/7,,,,
{16}8,,7,,16,,,6,4,,5,,2h[4:1],,3,,
{16}5h[4:1],,4,,3h[8:1],,5,3,6,3,7,,82,,2,,
{16}71,,7,,
{16}56,,,6,5,,6,,3h[4:1]/4,,,,2,,,,
{16}56,,,6,5,,6,,2h[4:1]/4,,,,3,,2,,
{16}2h[4:1],,,,4h[4:1],,,,1h[4:1],,,,6h[4:1],,,,
{16}8>4[4:1],,,,4pp3[8:3]*<8[4:1],,4,,,,,,,,,,
{16}43,,,3,4,,3,,6h[4:1]/5,,,,7,,,,
{16}43,,,3,4,,3,,7h[4:1]/5,,,,6,,7,,
{16}7h[4:1],,,,5h[4:1],,,,8h[4:1],,,,3h[4:1],,,,
{16}1-5[8:1],,,,3-7[8:1],,,,6,,4,,2,,8,,
{16}1q5[2:1]*q5[2:1],,,,,,,,,,,,,,,,
{16}8p4[2:1],,,,,,,,3,,,,,,,,
{16}4qq4[2:1]*qq4[2:1]`4?pp5[8:3],,,,,,,,,,,,,,,,
{16}4h[8:1]/5,,,,3/5h[8:1],,,,5h[8:1]/6h[8:1],,,,3h[8:1]/4h[8:1],,,,
{16}46,,35,,47,,25,,47,,15,,3/8>7[4:4],,26,,
{16},,,,,,,,,,,,,,,,
{16}8b-4[8:1],,,,
{16}8b/2b,,,3,5^2[8:1],,6,,5/7p3[8:1],,,,1,,2,,
{16}3/4qq3[16:3],,,5,4^7[8:1]*q1[32:5],,6,,,,,,2pp1[16:5],,1,,
{16}8^5[8:1],,,,8qq1[16:5],,,,2^5[8:1],,,,2pp1[4:1],,,,
{16}2/1<2[32:12],,,,6V47[32:7],,6,,,,,,1-5[8:1],,,,
{16}1/8,,,6,4^7[8:1],,3,,4v1[8:1]/2,,,,8q4[8:1],,7,,
{16}7,,,6,5q1[8:1]*p1[8:1],,4/6,,,,,,7/3v8[8:1],,,,
{16}5^7[8:1]/3,,,,5/8p4[8:1],,,,3v1[8:1]/8,,,,3/5,,,,
{16}8qq7[16:3]/2^5[8:1],,,,8/2pp5[16:5],,,,2,,6,,{24}6,7,8,1,,,
{16}3b/7b,,,6,4^7[8:1],,3,,4/2-5[8:1],,,,2/8,,7,,
{16}6qq5[16:3]/4,,,5<2[16:4],6,,2,,3v8[8:1],,,,3,,5,,
{16}6-4[8:1],,,,6/4-7[8:1],,,,2-5[8:1],,,,5-1[8:1]/2,,,,
{16}8-3[8:1],,,,8/3>6[16:5],,4,,5-1[8:1],,,,5,,,,
{16}6/2,,1,,8^5[8:1],,8^3[8:1],,8p8[32:9],,,,,,3,,
{16}3V51[16:3],,,6,,,8,,2/8V26[16:3],,,3,,,4,,
{16}7/5-1[8:1],,,4,5,,3,,28,,7,,65,,4,,
{16}3/4-8[8:1],,,5,4,,6,,71,,2,,34,,5,5,
{16}3-8[8:1],,2,,6-4[8:1],,7,,2qq4[16:5],,,,,,5,,
{16}6,,7-4[8:1],8,,8,7,,3,,2-5[8:1],1,,1,2,,
{16}6-2[2:1]*-1[2:1],,,,,,,,,,,,,,,,
{16}2-5[8:1],,1-6[8:1],,2,,1,,,,53,26,1-5[8:1]/7,,,,
{16}1b-3[8:1]/8,,,7,1-5[8:1],,6,,1-7[8:1]*-3[8:1],,7,,1,,,,
{16}6-4[8:1],,,1,6-8[8:1],,2,,6/2-6[8:1],,3,,2/7-5[8:1],,8,,
{16}7-1[8:1]/4,,,3,7-5[8:1],,2,,7-3[8:1],,1,,8-6[8:1]/7,,,,
{16}8-4[8:1]/1,,,2,8,,3,,6^3[8:1],5,7,,2q6[8:1],,,,
{16}2^8[8:1]/4,,,5,2q6[8:1],,6,,2^8[8:1]*^4[8:1],,7,,2,,,,
{16}5^7[8:1],,,3,5^3[8:1],,2,,5/2v5[8:1],,1,,2/6,,7,,
{16}8/4^2[8:1],,,1,4<8[4:1],,8,,8>4[4:1],,,,4V68[4:1],,,,
{16}8V24[4:1],,,,4,,,,6,,7,5,8,,3,4,
{16}3-1[8:1],,,5,3-5[8:1],,6,,3-1[8:1]/7-4[8:1],,8,,3/7,,,,
{16}6^8[8:1],,,4,6^4[8:1],,3,,6^8[8:1]/2v5[8:1],,1,,6/2,,,,
{16}2-4[8:1],,,8,2-8[8:1],,7,,2/6-2[8:1],,5,,1/6,,,,
{16}7^5[8:1],,,1,7^1[8:1],,2,,7/3pp5[32:5],,4,,8/3,,7,7,
{16}4,,,5,4,,6,,8/7,,16,,1h[4:1]/6,,,,
{16}5,,,4,5,,3,,1/2,,83,,8h[4:1]/3,,,,
{16}4,,,5,4,,6,,8/7,,16,,1h[4:1]/6,,,,
{16}5,,,4,5,,3,,1/2,,87,,56,,3,3,
{16}5h[4:1],,,,3,,,,2,,1,,2,,1,,
{16}3-8[8:1]/8,,,7,,,6,,5-1[8:1],,,,1,,,,
{16}4h[4:1],,,,6,,,,7,,8,,7,,8,,
{16}6-1[8:1]/1,,,2,,,3,,4-8[8:1],,,,8,,,,
{16}5h[4:1],,,,3h[384:1],,,,2h[384:1],,1h[384:1],,2h[192:1],,8h[192:1],8,
{16}3,3h[384:1],6h[384:1],6h[384:1],{24}1b,2,3,7b-3[8:1],6,5,2b,3,4,7b/5s1[30#32:14]*v2[30#32:14],,,
{16},,,,,,,,,,,,,,,,
{16},,,,,,,,,,,,,,,,,,,,,,,,,,,,,,,,,,,,,,,
E
