&title=jigoku
&artist=イルマ; 初音ミク
&first=0
&des=izanai
&lv_5=14+
&inote_1=
&inote_5=(68)
{2},
||
intro
1-1
{32}2h[16:3],,,,,,,,4,,,,,,,,
{32}6h[16:3],,,,,,,,4,,,,,,,,
{32}3h[16:3],,,,,,,,5,,,,,,,,
{32}8h[16:3],,,,,,,,2-5b[32:1],,,,6-1[32:2],,,,
{32}2x/8x/A5h[4:1],,,,,,,,7,,,,,,,,
{32}3h[16:3],,,,,,,,5,,,,,,,,
{32}7h[16:2],,5h[8:1],,,,,,6h[16:2],,4h[8:1],,,,,,
{32}5-8b[32:1],,3,,1-4b[32:1],,7,,{128}5xb/A8h[128:16],,,,{32},,,{128}1xb/A4fh[128:16],,,,{32},,,
||
intro
1-2
{32}7x,7,5,6,4,5,3,,2/8h[16:3],,,,,,,,
{32}1x,1,5V37[8:1],3,6,4,7,,5/3h[16:3],,,,,,,,
{32}8h[32:3],,,2h[32:3],,,6,,4/6h[16:3],,,,,,,,
{32}5,7,,1,,4,3,,6,5,7,4,6-2b[32:2],2,5,3,
{32}4h[8:1],,,,A6f,,,,5x/1xh[16:3],,,,,,,,
{32}7x,7,5,6,2,4,3,,4/6h[16:3],,,,,,,,
{32}8x,,6,1,5,2,4,3,5,4,6,5,7,4,8,3,
{32}7-4b[32:1],1,5,5,3-8b[32:1],,26,,7bx/1bx/A4h[8:1],,,,3bx/A8fh[8:1],,,,
||
build
up
{32}6b,,3,4,2,4,3,,5,4,6,4,5,,2,4,
{32}3b,,6,5,7,5,6,4,5,5,2,4,3,,81,,
{32}7b,5,6,5,7,5,6,5,7,7,5,6,4,5,3,,
{32}6,5,7,3,4,2,8,1,7,5,6,2,4,3,8,,
{32}3b,,6,5,7,5,6,,4,5,3,5,4,,7,5,
{32}6b,,3,4,2,4,3,5,4,4,7,5,6,,3,4,
{32}1b,1,5,5,3,3,4,4,2,2,6,6,5,5,7,7,
{32}3,4,2,6,5,7,1,8,2,4,3,7,5,6,1,,
{32}E6h[32:14]/E5h[32:12]/E4h[32:13],,,,,,,,,,,,,,,,
||
chorus
1-1
(68)
{64}1x-5-3-8[32:5]/Cf,2,3,4,5,6,7,8,1,2,3,4,5,6,7,8,1h[4:1],,,,,,,,,,,,,,,,
{64}7x-1-5-3[32:5],6,5,,,,1x,2,3,4,,,2x/6x,,,,A7fh[4:1],,,,,,,,,,,,,,,,
{64}2x-6-4-7[32:5],3,4,5,6,7,8,1,2,3,4,5,6,7,8,1,2h[4:1],,,,,,,,,,,,,,,,
{64}8x,7,6,5,,,2x,3,4,,,,3x/7x,,,,{32}1s5b[32:3],5,3,7,{48}1,1,1,1,1,1,
{64}1h[8:1],,,,,,,,
,,,,7x/3x,6,5,4,
3,2,1,8,7x/3x,4,5,6,
7,8,1,2,3h[16:1],,,,
{64}8x,7-3-5-1[64:10],6,5,,,2x,3,4,,,,2x/6x,,,,A7fh[4:1]],,,,,,,,,,,,,,,,
{64}2x-6-8-3[32:5],3,4,5,6,7,8,1,2,3,4,5,6,7,8,1,2fh[4:1],,,,,,,,,,,,,,,,
{64}5x-1b[64:2],6,7,,,,1x,2,3-7b[32:1],,,,8x/4x,,,,6b/5b/A1h[8:1],,,,,,,,3b/A7fh[8:1],,,,,,,,
||
chorus
1-2
{32},,1,2h[16:1],,5,4,7,7h[16:1],,4,6,1h[16:1],,5,3,
{32}7b,,2,8h[16:1],,5,6,3,3,4,2,6,1,8,3,7,
{32}4b,,5,2h[16:1],,8,1,6,6h[16:1],,1,7,4h[16:1],,8,2,
{32}6,5,7,1,8,2,4,3,5s1b[32:3],1,7,3,{48}5,5,5,5,5,5,
{32}5h[8:1],,,,{64},,,,1b/5b,26,37,84,5,6,7,8,1,2,3,4,5/6,,,,8/3,,,,
{32}2xh,2xh,2xh,{32}2h[16:1],,8,4,6,6,5,7,3,8,1,6,2,
{32}4b,,3,7h[16:1],,1,5,3,3h[16:1],,8,2,5h[16:1],,1,6,
{32}3,4,2,8,1,7,5,6,{64}3x,4,5,6,7,8,1x/6x,5,4,3,2,1,8b/4b,,,,
||
break
1-1
(intro
2-1)
{32}6h[16:3]/2,,,,,,4,,4,,,,,,,,
{32}3h[16:3]/7,,,,,,5,,5,,,,,,,,
{32}4h[16:3]/6,,,,,,8,,2,,,,,,,,
{32}5h[16:3]/3,,,,,,1,,7-4b[32:1],,,,3-8[32:2],,,,
{32}7x/1x/A4h[4:1],,,,,,,,1,,,,,,,,
{32}3h[16:3]/7,,,,,,1,,5,,,,,,,,
{32}6,,2h[8:1],,8,,,,7,,3h[8:1],,1,,,,
{32}8-5b[32:1],,2,,4-1b[32:1],,6,,{128}8xb/A5h[128:16],,,,{32},,,{128}4xb/A1fh[128:16],,,,{32},,,
||
break
1-2
(intro
2-2)
{32}7xp3[32:3],,,8,,,1,,71,,,,,,2,2,
{32}4,,5-7s3[32:5],4,,,4,,5/7h[16:3],,,,,,,,
{32}8p4[32:3],,,1,,,2,,82,,,,,,3,3,
{32}1,,8,1,,,1,,26,,4,7,3-7b[32:2],6,{48}4,5,4,
{32}5h[8:1],,,,A3f,,,,4x/8xh[16:3],,,,,,,,
{32}6,,7,5,,,12,,4/8h[16:3],,,,C,,,,
{32}1x,6,3,8,4,7,5,6,4,5xh[64:1],3,4,2,5,1,6,
{32}2-5b[32:1],8,4,4,6-1b[32:1],3,7,,2bx/8bx/A5h[8:1],,,,6bx/A1h[8:1],,,,
||
build
up
1-1
{32}3x,,,3,4,,E3,,4,3,,3,4,,2,2,
{32}6x,,,6,5,{64}E7,B7,{32},4,5,4,,6,5,{64}7,,{32}5,,
{32}3x,,,3,4,,E3,,4,3,,3,4,,2,,
{32}6x,,,6,5,{64}E7,B7,{32},,5x,6,4,5,3,4,2,6,
{32}4,4,5,5,3,3,7,7,5,5,6,6,8,8,4,4,
{32}3,3,1,1,4,4,{48}6x,5x,6x,{32}2,2,4,4,3,3,8,8,
{32}2,2,4,3,6,6,5,7,1s5<4-8[17:6],1,1,1,8,8,8,8,
{32}2h[16:6],,,,,,,,,,,,,,,,
||
drop
1-1
{32}3,8,4,6,5-1[64:3],7h,7h,7h,{64}1,2,3,4,6,7,8,1,{32}5b,,,,
{32}1,6,3,4,2-6[64:3],8h,8h,8h,{64}2,3,4,5,8,7,6,5,{32}2b,,,,
{32}8,2,6,4,5-1[64:3],3h,3h,3h,{64}1,8,7,6,4,3,2,1,{32}5b,,,,
{32}8z4^5s1[32:6],3,6,4,5,2,7,8,,,,,,,,,
{32}6,1,5,3,4-8[64:3],2h,2h,2h,{64}8,7,6,5,3,2,1,8,{32}4b,,,,
{32}8,3,6,5,7-3[64:3],1h,1h,1h,{64}7,6,5,4,1,2,3,4,{32}7b,,,,
{32}1,7,3,5,4-8[64:3],6h,6h,6h,{64}8,1,2,3,5,6,7,8,{32}4b,,,,
{32}1-7-3-5^4-6-2-8[32:6],5,3,7,4,8,2,6,,,,,,,,,
||
?
1-1
{32}A7h[2:1]/A8h[2:1]/A1h[2:1]/A2h[2:1],,,,,,,,,,,,,,,,
{32}E7h[2:1]/B7h[2:1]/B8h[2:1]/B1h[2:1]/B2h[2:1]/E3h[2:1],,,,,,,,,,,,,,,,
{32}Ch[2:1]/B6h[2:1]/B5h[2:1]/B4h[2:1]/B3h[2:1],,,,,,,,,,,,,,,,
{32}A6h[32:14]/A5h[32:12]/A4h[32:12]/A3h[32:13]/E6h[32:14]/E5h[32:12]/E4h[32:13],,,,,,,,,,,,,,,,
||
chorus
2-1
{64}1x-5^8[64:8]/Cf,2,3,4,5,6,7,8,1x^4b[32:2],5x,1x,5x,1x,5x,1x,5x,1xh[8:1],,,,,,,,,,,,,,,,
{64}7xs3V51[32:6],6,5,,,,1x,2,3,4,,,2x/6x,,,,A7fh[4:1],,,,,,,,,,,,,,,,
{64}2x-6^1[64:8],3,4,5,6,7,8,1,2x^5b[32:2],6x,2x,6x,2x,6x,2x,6x,2xh[8:1],,,,,,,,,,,,,,,,
{64}8x,7,6,5,,,2x,3,4,,,,3x/7x,,,,{32}1s5b[32:3],5,3,7,{48}1,1,1,1,1,1,
{64}1h[8:1],,,,,,,,,,,,2x/6x,3,4,5,,,8x/3x,7,6,5,,,1x/5x,26,37,48,5,6,7,8,
{64}1x-5-3s7[32:6],2,3,4,,,7x,6,5,,,,3x/7x,,,,A1hf[4:1],,,,,,,,,,,,,,,,
{64}8x-4^1[64:8],7,6,5,4,3,2,1,8x^5b[32:2],4x,8x,4x,8x,4x,8x,4x,8xh[8:1],,,,,,,,,,,,,,,,
{64}1x-5b[64:2],2,3,,,,5x,6,7-3b[64:2],,,,4x/8x,,,,1b/2b/A5h[8:1],,,,,,,,7b/A3fh[8:1],,,,,,,,
||
chorus
2-2
{32},,8,8,1,7,2,6,3,5,1,7,4,6,2,8,
{32}3b,3x,7,1,8,2,7,3,6,5,8,2,4,3,7,1,
{32}6b,6x,2,5,1,7,3,8,2,1,4,6,8,7,3,5,
{32}2,4,3,8,1,7,5,6,4z8b[32:3],8,2,6,{48}4,4,4,4,4,4,
{32}4h[8:1],,,,{64},,,,8b/4b,73,62,15,4,3,2,1,84,73,62,51,4,3,2,1,8x/4x,,,,
{32}7xh,7xh,7xh,{32}7h[16:1],,1,5,3,3,4,2,6,1,8,3,7,
{32}4b,4x,6,1,8,3,6,5,7,8,4,3,1,2,5,4,
{32}7,5,6,1,8,2,4,3,{64}6x,5^8-4^1s5b[64:21],4,3,2,1,8x/4x,5,6,7,8,1,6b/2b,,,,
{16}4x/8xh[4:1],,,8?z4[272#16:6],,,,,
