&title=Moon Halo
&artist=M2U
&first=0
&des=Dororo
&lv_5=13
&inote_5=(180)
{1},
{16}3^6[4:1],,,,3h[2:1],,,,,,,,
{16}7^2[4:1],,,,7h[2:1],,,,,,,,
{16}3^6[4:1],,,,3h[2:1],,,,,,,,
{16}7,,,,8,,8,,1,,1,,
{16}6h[4:1],,,,3,,4,,3,,4,,
{16}2h[4:1],,,,7,,5,,7,,5,,
{16}8,,8,,2,,2,,4,,4,,
{16}1,,1,,7,,7,,5,,5,,
{16}6^3[4:1],,,,6h[2:1],,,,,,,,
{16}2^7[4:1],,,,2h[2:1],,,,,,,,
{16}6^3[4:1],,,,6h[2:1],,,,,,,,
{16}2,,,,2,,4,,3,,5,,
{16}2h[4:1],,,,7,,5,,6,,4,,
{16}5h[4:1],,,,3p7[8:3],,3^8[4:1],,,,,,
{16},,,,6h[4:1],,,,5h[4:1],,,,
{16}4b,,,,,,,,45,,,,
{16}3,,4,,2,,4h[8:3],,1,,,,
{16}2,,4,,1,,4h[8:3],,8>4[8:3],,,,
{16},,,,,,6,,5,,6,,
{16}5qq5[2:1]/7,,,,,,,,,,,,
{16}6,,5,,7,,5h[8:3],,8,,,,
{16}7,,5,,8,,5,,1^6[4:1],,5,,
{16}4>5[2:1],,,,,,,,,,,,
{16}4xw8[4:1],,,,,,,,,,2x/6x,,
{16}26,,,,3,,4,,3^8[4:1],,,,
{16}37,,,,6,,5,,6^1[4:1],,,,
{16}1b^4[4:1],,,,4b^7[4:1],,,,1b>7[2:1],,,,
{16}1b,,,,8,,8h[8:3],,,,1,,
{16}1pp5[2:1],,,,6,,6,,7,,7,,
{16}8qq4[2:1],,,,3,,3,,2,,2,,
{16}1>5[4:1],,,,5<1[4:1],,,,1,,,,
{16}6xbp1[8:3]*>1[8:3],,,,,,,,,,,,
{16}2x>6[4:1],,,,6p1[4:1],,,,7,,,,
{16}8^5[4:1],,,,2,,,,3,,4,,
{16}2<6[4:1],,,,6q3[4:1],,,,5,,,,
{16}4^7[4:1],,,,3,,3,,2,,2,,
{16}1q6[4:1],,,,6q3[4:1],,7,,8,,,,
{16}6^1[4:1],,,,5,,5,,4,,4,,
{16}3p6[4:1],,,,6p1[4:1],,5,,4,,,,
{16}8x,,,,2x/6x,,,,6,,5,,
{16}7<3[4:1],,,,3q8[4:1],,,,2,,,,
{16}1^4[4:1],,,,7,,,,6,,5,,
{16}7>3[4:1],,,,3p6[4:1],,,,4,,,,
{16}5^2[4:1],,,,6,,6,,7,,7,,
{16}8p3[4:1],,,,3p6[4:1],,2,,1,,,,
{16}3^6[4:1],,,,7,,7^2[4:1],,,,4,,
{16}4b,,,,3,,5,,3,,,,
{16}2h[2:1]/6h[2:1],,,,,,,,,,,,
{16}E3,,4,,5,,3,,4,,5,,
{16}C,,4,,5,,3,,4,,5,,
{16}E7,,4,,5,,3,,4,,5,,
{16}6h[4:1],,,,5h[4:1],,,,4,,,,
{16}E7,,5,,4,,6,,5,,4,,
{16}C,,5,,4,,6,,5,,4,,
{16}E3,,5,,4,,6,,4x/5x,,,,
{16}3b^6[4:1]/6x,,,,,,,,,,,,
{16}7h[4:1],,,,5h[4:1],,,,4,,5,,
{16}6^1[4:1],,,,4,,4,,,,2,,
{16}2h[4:1],,,,4h[4:1],,,,5,,4,,
{16}3p7[4:1],,,,7p3[4:1],,,,3,,,,
{16}8h[4:1],,,,5,,6,,4,,3,,
{16}2h[4:1],,,,4,,3,,4,,5,,
{16}6h[4:1],,,,5b>1[4:1],,,,1b<5[4:1],,,,
{16}5b,,,,E1,B8,C,B4,E5,,,,
{16}1x^4[4:1],,,,4^7[4:1],,,,7,,,,
{16}1q6[4:1],,,,6^3[4:1],,,,2,,2,,
{16}1^6[4:1],,,,6^3[4:1],,,,3,,,,
{16}8,,,,1h[8:1],,7h[8:1],,2h[8:1],,6h[8:1],,
{16}2<6[4:1],,,,6>2[4:1],,,,E2,E1,E8,E7,
{16}E6,,,,6xh[8:1],,4h[8:1],,7h[8:1],,3h[8:1],,
{16}7>3[4:1],,,,3<7[4:1],,,,E8,E1,E2,E3,
{16}E4,,,,65,,65,,,,38,,
{16}8^5[4:1]/3,,,,5^2[4:1],,,,2,,,,
{16}8p3[4:1],,,,3^6[4:1],,,,7,,7,,
{16}8^3[4:1],,,,3b^6[4:1],,,,8b>6[2:1],,,,
{16}8b,,,,7,,7,,,,1,,
{16}1>5[4:1],,,,5<1[4:1],,,,E2,E3,E4,E5,
{16}E6,,,,7^4[4:1],,7,,,,3,,
{16}3h[4:1],,{24}2x,1x,8x,{16}7b,,,,1b>7[8:3]/5b,,,,
{16}8h[4:1]/1b,,,,,,8,,,,78,,
{16}1^6[4:1]/6,,,,1q6[4:1]/6p1[4:1],,,,1>6[8:3],,,,
{16},,,,,,,,7,,8,,
{16}1^4[4:1],,,,1q7[4:1]/4^7[4:1],,,,1,,,,
{16},,,,4h[8:1],,6h[8:1],,3h[8:1],,7h[8:1],,
{16}2<6[4:1],,,,6pp4[2:1],,,,D2,D1,D8,D7,
{16}D6,,,,5xh[8:1],,3h[8:1],,6h[8:1],,2h[8:1],,
{16}7>3[4:1],,,,3qq5[2:1],,,,D8,D1,D2,D3,
{16}D4,,,,1x,,1,,,,57,,
{16}8^3[4:1]/4,,,,8p3[4:1]/3q8[4:1],,,,8<3[8:3],,,,
{16},,,,,,,,2,,1,,
{16}8q6[4:1],,,,8^3[4:1]/6b^3[4:1],,,,8b,,,,
{16}A3f/E4/E3/D4/D3/A2/A4,,,,1xh[8:1],,7h[8:1],,2h[8:1],,6h[8:1],,
{16}3^6p1[2:1],,,,6,,,,1,,8,,
{16}7,,{24}6^1[8:3],2,6,{16}2^5b[4:1],,,,,,,,
{16},,,,48,,,,37,,,,
{16}2^5[8:3]/6^1[8:3],,,,,,,,,,,,
{16},,,,B8/B1,,,,,,,,
{16},,E4,,,,,,,,E5,,
{16},,,,,E6,,,,,,,
{16},,,,,,,,,,{24}D8,A8,
{24}D1,A1,D2,,,,,,,,,,,
{16},,,,,,,,,,,,
{16},,,,,,,,,,,,
{16},,,,,,,,,,,,
E
