&title=LABYRINTHOX
&artist=BlackYooh
&first=0.11
&des=slug
&lv_5=14
&des_5=slug
&inote_5=
(200){4},{1},{4},{32}E1,
E2,E3,E4,E5,E6,E7,E8,1x-5[16:1],2x,3x,4x,5x,6x,7x,8x,
{1}1x-7-4[2:3]*-3-6[2:3],
,5x-7-1-3<6[2:3]*<6-8-2-4-6[2:3],
,7x-5-3-6[2:3]*-1-3-8[2:3],
{4},,,,1x-3-5>2[32:41],
B4/B5,,B2/E2/B1,
,6,{32},,,,,,,,7,6,5,4,3,2,1,8,
2b/7h[4:1],E3,B3,B4,{8}E5,6,7h[4:1],{4}1,2h[8:1]/5h[8:3],
{8}2,3,{4}4h[4:1]/5h[8:1],{8}B5,4,B4,2,
{4}A3,{8}B5,4,{4}B4,{16}3,3,{8}3,
2,4,{4}5/1,{8}2,C,3,{16}6,5,
{8}6,5/4,4/3,1,7,5/4,3,B6,
8,5,3,1/8,7,5,3,8,
{16}4,6,4,6,3,5,3,5,2,4,2,4,{8}1-7-2[4:1],6v3-5[4:1],
{16},,,,,,,,1,6,{8}1,{16}B2/B6,B3/B7,{8}B4/B8,
{2}1-7[8:1]/5>3[8:1],{8}2,{16}6,6,{8}B4,B5,
{4}2-4[8:1],2/5-1[8:1],{16}5,3h[16:1],,,{4}8,
{2}7-5[8:1]/2qq4[32:21],{4}6-1[8:1],6-4-2-8[8:3],
{8}7,{32}B7,B6,{16}B5,,,{8}4x-6[8:1],,7>8-2>3-5b[2:1],,,{2}7x<5b[8:1],
{8}3-1[8:1],{16}6,6,{4}3,
8h[4:1]/6>3[8:1],6,{16}B2,B1,{8}B6,{4}B3/B4,
{16}3,4,{8}3,{16}3,4,{8}3,3/4,3/B5,{4}3/B6,
7-3[8:1],5w1[8:1],5,7b/3b,
1b/8b-6[12:1],{8}1,2,{4}3/8-4[12:1],3-1[12:1],
3/8-6[12:1],{8}2,3,{4}8-4[8:1]/4-2[8:1],8/4,
{24}1,2,3,4,5,6,7,8,1,2,3,4,{8}5,7>1[8:1],1-3[8:1],3-5-7>1>4[8:5],
{1}5h[4:3],
{4}8b/1b-3[12:1],{8}8,7,{4}6/1-5[12:1],6-8[8:1],
6/1-3[8:1],{8}7,6,{4}5-1[12:1]/1-5[12:1],1/5,
{8}4/8,3,2/5,6,7<4[8:1],{16}8,8,{4}7,
{16}1,2,{8}3/B5,{16},,2,3,{4}4/B7/E7/B6,{16}3,4,{8}5h[16:1]/8h[16:1],
{2}E8/E7/E6/E5/E4/E3/B6/B5/B4/B3/B7/B2/B8,{12}1,1,1,1,{24},{8}2/8,
{16},,,,1,1,{8}1,{16},,1,1,{32}1,,,,,A2,B2,B6,
{4}A6f,{16}6,6,{8}6,{16},,6,6,{4}6-4-2-8[4:3],
6/7,8h[8:1],6h[8:1],7p3[8:1]*v2[8:1],
{12},,,,,,4,4,4,{24}4x,4x,4x,4x,,,{4}B6/E6/B1/E2,
{16}3,3,{8}3,{16},,3,3,{4}3,
B7/E7,{16}3,3,{8}3,{16},,3,3,{4}3-5-7-1[4:3],
3/2,1h[8:1],{6}3h[8:1],,5,
{1}3>7-1-4[2:7]/7<3-5-8[2:7],
,,,7<4q1[8:27]/3<6p1[8:27],
{4},,,,,,,,,,,,1-3[12:1],
7,4-2[12:1],8,
{8}1,1,7,7,{4}8-5[8:1]*-3[8:1],8,
2/4-6[8:1],8,2/7-5[8:1],4,
{8}6,6,4,4,{4}5q1[8:1]*>2[8:1],5,
8x-6[12:1],1,5-7[12:1],3,
{8}8,8,2,2,{4}1-4[8:1]*-6[8:1],1,
7/5-3[8:1],1,7/2-4[8:1],5,
{8}3,3,5,5,{4}4w8b[8:1],4b,
6b/2b,2/4,4/6,8/6,
2/8,{16}2,3,4,5,8,7,6,5,B1,B2,B3,B4,
{4}5bx/6b,7/8,2/1,3/4,
5/6,{16}7,6,5,4,8,7,6,5,1,8,7,6,
{4}5b/2b,7/4,1/3,6/8,
5/2,{16}3,4,2,5,,4,6,3,7,2,8,1,
{4}E1/B8/E8/B7/B3/E4/B4/E5/C,E6/A5/E5,E4/B3/B4,B7/E8/B8,
{16}1,,,7,{8}8,6/1,{16}8/3,,,2,{8}1,8/3,
{32}8bx-2-4[2:1],7x,6x,5x,,,,,{4}4h[8:1],5h[8:1],6h[8:1],
{32}7bh[8:1]/5b<1[2:1],4,3,2,,,,,{4}1h[8:1],2h[8:1],3h[8:1],
{32}4h[8:1]/2b>4-6b[2:1],1,8,7,,,,,{4}6h[8:1],7h[8:1],8h[8:1],
{32}7bh,6/8,5/1,4/2,{8}3>2<1<8<7<6>5>4[8:3],{4}B5/E5/B4,B7/E7/B6,E1/B8/B1,
3-7[8:1],2,1-5[8:1],8,
7-3[8:1],6,5-1[8:1],5/4,
{16}2,8,2,8,3,7,3,7,4,6,4,6,3,5,2,4,
{24}2,4,2,4,2,4,2-4b[8:1],4,2,4w8b[8:1],2,4,,,,,,,{4}E4/E8/B2/B6,
{8}7b/4b,{16}6,3,{8}8-2[8:1],{16}2,6,{8}8-4[8:1],{16}5,5,,,6,6,
{8}3>8[8:1],3,{32}8b,7,6,5,,,,,{8}3-1[8:1],3,{32}8b,7,6,5,,,,,{8}5b/2b,
{16}3,6,{8}1-7[8:1],{16}7,3h[16:1],{8}1-5[8:1],{16}4,4,,,3,3,
{32}B1,B8/E8/B2/E3,B7/B3,E7/E4,,,,,{8}5x,{16}1x-7-3-5[4:1],8x,{2}1x,
{8}7b/4b,{16}6,3,{8}8-6[8:1],{16}2,6,{8}8>3[8:1],{16}4,4,{8}8,{16}6,6,
{32}1-5[8:1],2,{16}3,{32}8-4[8:1],7,{16}6,{8}1x-6>3b[4:1],8x,1x,8xp6[4:1],,,4,
4,{16}4,5,{8}4,4/5,4/5,{4}5/4,
{8}3/7-3[8:1],7/3qq7[8:3]*pp7[8:3],{4}7/3,{16},,,,,,,,2,
3,4,5,7,8,1,2,5,4,3,2,8,7,6,5,
{8}3-7[8:1],2,{4}1/3,{8}8-3[8:1]/6-3[8:1],8/6,{4}8/6,
{8}2/4,1,3/5,1,7/5,8,6/4,8,
7/5,6/4,5/3,2/4,2/4,3/5,4/6,2/8,
1-5[8:1],1,8-6[8:1],8,1>3[8:1],1,8p4[8:1],8,
1-5[8:1],1,8-6[8:1],8,1>3[8:1],1,8<4[8:1],8,
{16}4,3,2,1,8,7,6,5,{8}8,8,8,8,
{16}1,2,{8}3/B5,{16},,2,3,{4}4/B7/E7/B6,{16}3,4,,,{8}5b/2b<8[8:1],
{16}3,4,{8}2,5,6<1[8:1],{16}2,2,{4}6,
{8}2-5[8:1],3,6-1[8:1],7,4-8b[8:1],3,5,6,
4b/7b>1[8:1],{16}6,5,{8}7,4,3>8[8:1],{16}7,7,{4}3,
{8}7<4[8:1],6,3-8[8:1],2,5w1b[8:1],6,{4}5b,
{8}3-5[8:1],8,3-1[8:1],6,3-6-2[4:1],{16}8,8,{4}3,
{8}7<4b[8:1],3,7-2b[8:1],2,7p4[4:1],{16}3,3,,,,,{8}1x,
2,3,{16}6,5,{8}6,{16}3,4,{4}3-8[8:1]*-7[8:1],
3,1-6[8:1]*-4[8:1],{2}1>8[1:1],
,,{1}8<1[4:3],
{4}3-5-1[2:1],,,8p4<7[4:3],
{1}8,
{8}8/3,{16}2-5[8:1],1,,,{8}2,6,{16}7-3[8:1],8,,,{8}7,
8,{16}2-5[8:1],1,,,{8}2,6,{16}6,5,,,{8}3/4,
{16}2,5,3,6,4,7,5,8,4,3,2,1,8/4,7,6,5,
{1}4>8[2:1]/8V64[2:1],
{2}E8/E7/E6/E5/E4/E3/B6/B5/B4/B3/B7/B2/B8,{16}1,1x,1x,1x,{8}1x,2/8,
{16},,,,1,1,{8}1,{16},,1,1,{32}1,,,,,A2,B2,B6,
{4}A6f,{16}6,6,{8}6,{16},,6,6,{4}6-4-2-8[4:3],
6/7,8h[8:1],6h[8:1],7p3[8:1]*v2[8:1],
{12},,,,,,5x/3x,{24}4x,4x,4x,4x,4x,4x,4x,4x,,,{4}B6/E6/B1/E2,
{16}3,3,{8}3,{16},,3,3,{4}3,
{24}5h[8:1]/E6,B6,B7,E8,,,3h[8:1]/E4,B4,B5,E6,,,1h[8:1]/E2,B2,B3,E4,,,7h[8:1]/E8,B8,B1,E2,,,{8}7,
5/7,5/4,2/4,{16}3,5,2,6,3,4,8,7,
{32}1-6-8-5b[4:5]*-4-2-5b[4:5],B1,C,B5,{8}A5,
E
