&title=私は、私達は
&artist=MORE MORE JUMP!
&first=0
&des_5=Kurene_Saka@雫推し
&des_6=MY180@遥推し
&lv_5=13
&lv_6=13
&inote_5=(170)
{1},,
{8}4h[8:3]/5,,,5,46,,,4,
{8}3h[8:3]/5,,,6,47,,,3,
{8}2h[8:3]/5,,,7,48,,,2,
{8}1h[4:2]/5,,,,8,7,6,5,
{8}5h[8:3]/4,,,4,53,,,5,
{8}6h[8:3]/4,,,3,52,,,6,
{8}7h[8:3]/4,,,2,51,,,7,
{8}8h[4:2]/4,,,,1,2,3,4,
{8}4>2[8:1]/5,,4,5,6h[4:1],,,4,
{8}3>1[8:1]/5,,3,6,7h[4:1],,,3,
{8}2>4[8:1]/5,,2,7,8h[4:1],,,2,
{8}1>3[8:1]/5,,1,,8,7,6,5,
{8}5<7[8:1]/4,,5,4,3h[4:1],,,5,
{8}6<8[8:1]/4,,6,3,2h[4:1],,,6,
{8}7<5[8:1]/4,,7,2,1h[4:1],,,7,
{8}8-4[4:1]/4,,,,1,2,3,2,
{8}1b>4[8:1],,7,6b<1[8:1],,4,3b<2[2:1],,
{8},,,,6,5,6,7,
{8}8b<5[8:1],,2,3b>8[8:1],,5,6b>7[2:1],,
{8},,,,3,4,3,2,
{8}1b<6[8:1],,3,4b>1[8:1],5,,7b<8[2:1],,
{8},,,,3,4,5>7[8:3],,
{4}3h[4:1]/5b,,4<2[8:3],6h[4:1]/4b,
{4},7>5[8:3],3h[4:1]/7b,,
{4}2<4[8:3],6h[4:1]/2b,,8-4[8:1],
{8}3h[8:3]/8,,,4,5h[8:3]/3,,,3,
{8}2h[8:3]/5,,,5,6h[8:3]/2,,,2,
{8}1h[8:3]/6,,,6,7h[8:3]/1,,,1,
{8}2>5[4:1]/8<5[4:1],,,,,2,3,4,
{8}5-1[4:1]/7,,,7,6-2[4:1],,,3,
{8}4-8[4:1],,,6,5-1[4:1],,,2,
{8}3-7[4:1],,,5,4-8[4:1],,,2,
{8}1pp1[2:1],,,,,8,8,7,
{8}6h[8:3]/4,,,5,4h[8:3]/6,,,6,
{8}7h[8:3]/4,,,4,3h[8:3]/7,,,7,
{8}8h[8:3]/3,,,3,2h[8:3]/8,,,8,
{8}7<4[4:1]/1>4[4:1],,,,,7,6,5,
{8}4-8[4:1]/2,,,2,3-7[4:1],,,6,
{8}5-1[4:1],,,3,4-8[4:1],,,7,
{8}6-2[4:1],,,4,5-1[4:1],,,7,
{8}8qq8[2:1],,,,,,,3,
{8}2b/8-4[8:1],2,28,2,1<6[4:1],2,3,3,3,3,4<7[4:1],3,3,3,3,2,
{8}7b/1-5[8:1],7,71,7,8>3[4:1],7,6,6,6,6,5>2[4:1],6,6,6,6,7,
{8}8b/1,8,82,8,83,8,84,8,
{8}4b/8,4,47,4,46,4,4>1[8:1]*<7[8:1]/5,4,
{1}4qq4[4:5]*pp4[4:5],
{4},,,4,
{8}4,3,4,5,4,3,4,5,
{8}4,2,4-8[8:1],6,4w8[8:1],,,,
{8}5-1[8:1],4,3,4,5-1[8:1],4,2,4,
{8}5-1[8:1],3,4,3,5-1[8:1]*-8[8:1],,5,,
{8}4-8[8:1],5,6,5,4-8[8:1],5,6,5,
{8}4-8[8:1],5,6,5,4-8[8:1]*-1[8:1],,4,,
{8}5-1[8:1],4,3,4,5-1[8:1],4,2,4,
{8}5-1[8:1],4,3,4,5w1[8:1],,,,
{8}3-8[8:1]/5,6,53,4,3-8[8:1]/5,6,53,4,
{8}3-8[8:1]/5,6,53,4,3-8[8:1]/5-1[8:1],,5b/3b,,
{8}6-1[8:1]/4,3,46,5,6-1[8:1]/4,3,46,5,
{8}6-1[8:1]/4,3,46,5,6-1[8:1]/4-8[8:1],,4b/6b,,
{8}3-1[8:1]/5,6,53,4,3-8[8:1]/5,6,53,4,
{8}3-7[8:1]/5,6,53,4,3/5w1[8:1],,5b,,
{8}6-8[8:1]/4,3,46,5,6-1[8:1]/4,3,26,3,
{8}6-2[8:1]/4,3,46,5,6/4w8[8:1],,,,
{8}2-4[8:1]/8,17,82,1,2-5[8:1]/8,17,82,1,
{8}2-6[8:1]/8,17,82,1,2/8w4[8:1],,8b,,
{8}7-5[8:1]/1,82,17,8,7-4[8:1]/1,82,17,8,
{8}7-3[8:1]/1,82,17,8,7/1w5[8:1],,1b,,
{8}2-4[8:1]/6,17,72,7,28,8-6[8:1]/1-5[8:1],27,8b-4[8:1]/1b-3[8:1],
{8},8b/1b,,1,2-5[8:1]/8,1/7-4[8:1],2,7,
{8}2-5[8:1],1,8-4[8:1]/2,7,1-5[8:1]/8,2,1/7-4[8:1],8,
{8}1-3[8:1],1-7[8:1],1-5[8:1],
&inote_6=(170){4},{1},{4},,,{8}6h[2:1],
{4},{8}2,2,{4},{8}3,
3/7h[2:1],{4},{8}4,4h[8:3],{4},{8}7-5[16:3],
7,{4},{8}2-4[16:3],2,{4},{8}5,
{2}5h[2:1],{4}2,7h[2:1],
{8}2q5[8:5],{4},{8}8x,8x,{4},{8}7-3[4:1],
7,{4},{8}2x,2x,{4},{8}B7/B2,
Ch[8:3],{4},{8}7p2[8:3],7,{4},{8}E8,
{8}E2,,,,8,1-4[16:3],8,1,
C,{4},{8}5,5h[8:3],{4},{8}3,
4h[8:3],{4},{8}5x,6h[8:3],{4},{8}3x,
2h[8:3],{4},{8}6x,7h[8:3],{4},{8}1,
{2}1h[4:1],{8}6,6,7,8,
1-4[8:1],{4},{8}5-8[8:1],5,{4},{8}Ch[8:1],
{4},{8},B6,B3,{4},{8}7,
7<3[2:1],{4},{8}3,3>7[16:9],{4},{8}B7,
{8}B2,,,,6h[16:12],{4},{8},8bp3[2:1],
{4},{8}1b,{4},2b,
{2},1pp1[8:3],
{8}8b-5[4:1],{4},{8}2b,{4},4b/C,
,,{8}5,5,6,7-3[4:1],
{4}7b,{8}1-5[4:1],1b,{4},8bw4[4:1],
,,{8}E8,E7,{4}E6,
C/2bx<6[4:1],{2},{4}C/7bx>3[4:1],
{2},C/5bx<1[4:1],
{4},5bx-8[4:1]*-3[4:1],,,{8}1,
{4},{8}7,6,{4},{8}E2,
E4,{4},{8}5,5,{4},{8}2-4[4:1],
2,{4},{8}7-3[4:1],7,{4},{8}2,
{8}C,{4},{8},,5,6,7,
{8}2q6[8:3],{4},{8}6q2[2:1],6,{4},{8}2>6[2:1],
2,{4},{8}6<3[2:1],6,{4},{8}3>6[2:1],
3,{4},{8}6<3[2:1],6,{4},{8}E5,
Ch[8:3],{4},,{8}3,2,1,
8-4[8:3],{4},{8}7-3[2:1],7,,,6-2[2:1],
6,{4},{8}5-1[2:1],5,{4},{16}1>4[16:9],,1,,
{8},,4-8[2:1],4,{4},{8}8<5[16:7],
8,{4},,{8}2,3,4,
7-4[8:3],{4},{8}3-8[2:1],3,{4},{8}7-2[2:1],
7,,,{8}4pp5[2:1],4,,,5>5[2:1],5,
{8},,5s1[2:1],5,{4},{8}1w5[2:1],
1,{4},,,{8}5x,
3-8[8:1],6,6,6,3-8[8:1],5,5,5,
3-8[8:1],6,6,6,3-8[8:1],5,5,5,
6-1[8:1],3,3,3,6-1[8:1],4,4,4,
6-1[8:1],3,3,3,6-1[8:1],4,4,4,
3-8[8:1],6x,5x,6x,3-8[8:1],6x,5x,6x,
3-8[8:1],6x,5x,6x,3-8[8:1],6x,5x,6x,
{1}5bpp5b[4:5]*qq5b[4:5],
{4},,,C,
{8}5,6,4,3,6,7,3,2,
7,1,3,5,{4}7w3[8:1],7bx,
{8}6,5/4,3,6/5,8,4/3,1,5,
6,4,3,6,{4}7-4[8:1],7/2,
{8}3,4/5,6,3/4,1,5/6,8,4,
3,5,6,3,{4}2-5[8:1],2/7,
{8}7,8/1,2,7/8,5,1/2,4,8,
7,1,2,6/3,{4}7-4[8:1]/2-5[8:1],7/2,
{8}8-2[8:1],4,8-6[8:1],4,8-2[8:1],4,8-6[8:1],4,
8-2[8:1],4,8-6[8:1],4,{4}B2,B6,
{8}1-7[8:1],5,1-3[8:1],5,1-7[8:1],5,1-3[8:1],5,
1-7[8:1],5,1-3[8:1],5,{2}Ch[4:1],
{8}8-2[8:1],5x,8-6[8:1],4x,8-2[8:1],5x,8-6[8:1],4x,
8-2[8:1],5x,8-6[8:1],4x,{4}B2,B6,
{8}1-7[8:1],4x,1-3[8:1],5x,1-7[8:1],4x,1-3[8:1],5x,
1-7[8:1],4x,1-3[8:1],5x,{2}C,
{32}8x,7x,{16},{8}4,{32}1x,2x,{16},{8}5,{32}8x,7x,{16},{8}4,{32}1x,2x,{16},{8}5,
{32}8x,7x,{16},{8}4,{32}1x,2x,{16},{8}5,{4}E4,C,
{32}1x,2x,{16},{8}5,{32}8x,7x,{16},{8}4,{32}1x,2x,{16},{8}5,{32}8x,7x,{16},{8}4,
{32}1x,2x,{16},{8}5,{32}8x,7x,{16},{8}4,{2}Ch[4:1],
{32}8bx,7x,{16},{8}4,{32}1bx,2x,{16},{8}5,{32}8bx,7x,{16},{8}4,{32}1bx,2x,{16},{8}E7,
,C,,E3,7-3[8:1],7,8-4[8:1],8,
1-5[8:1],1,2-6[8:1],2,5-8[8:1],5,2-4[8:1],2,
7-1[8:1],7,3,2,{2}8-5[8:1]/1-4[8:1],
