&title=raputa
&artist=sasakure.UK × TJ.hangneil
&first=0
&des=
&wholebpm=339
&shortid=11662
&genreid=105
&genre=maimai
&versionid=21
&version=BUDDiES
&demo_seek=1.962
&demo_len=10.238
&clock_count=4
&chartconverter=MaiChartManager v26.3
&ChartConvertTool=MuConvert
&ChartConvertToolVersion=0.4.0-rc.7+47834d4
&des_2=
&des_3=
&des_4=佑
&des_5=project raputa
&lv_2=7.0
&lv_3=8.7
&lv_4=14
&lv_5=14.9
&inote_2=(230){1},,
1-4[4:5],,,
5,
5-8[4:5],,,
1/8,
{4}1,1,1,,
2,2,2,,
3,3,3,,
{2}4/5,4/5,
{4}5,5,5,,
6,6,6,,
7,7,7,,
{1}1/8,
{4}8,8,8,,
7,7,7,,
6,6,6,,
{2}4/5,4/5,
{4}4,4,4,,
3,3,3,,
2,2,2,,
{1}1b/8b,
B1,
B8,
B2,
B7,
B3,
B6,
B4,
C,
1h[2:1]/2h[2:1],
1/2,
3h[2:1]/4h[2:1],
3/4,
5h[2:1]/6h[2:1],
5/6,
7h[2:1]/8h[2:1],
7/8,
{4}7,7,7,,
7/8,7/8,7/8,,
6,6,6,,
5/6,5/6,5/6,,
3,3,3,,
3/4,3/4,3/4,,
2,2,2,,
{1}1b/2b,
8-4[2:3],,,
{2},2-6[2:3],
{1},,,
7-3[2:3],,,
{2},(240)1-4[0.25##1.71]/8-5[0.25##1.71],
,(250),
,(260),
,(270),
,Ch[1:8],
{1},,,,,,,
{2},(230),
{1},
{2},B1/B8,
{1},
{2},B2/B7,
{1},
{2},B3/B6,
{1},
{2},E4,
,E3,
,E2,
,E1,
,E8,
,E7,
,E6,
,C,
{4},,1,1,
1,1,2,2,
1/2,,3,3,
3,3,4,4,
4/5,,5,5,
5,5,6,6,
5/6,,7,7,
7,7,1/8,1/8,
1/8,,8,8,
8,8,7/8,7/8,
7/8,,6,6,
6,6,4/5,4/5,
4/5,,4,4,
4,4,3/4,3/4,
3/4,,2,2,
2,2,1b/8b,,
,,(230)1,1,
2,2,3,3,
3/4,,5,5,
6,6,7,7,
7/8,,8,8,
7,7,6,6,
5/6,,4,4,
3,3,2,2,
1/8,,1,1,
2,2,3/4,3/4,
3/4,3/4,5,5,
6,6,7/8,7/8,
7/8,7/8,8,8,
7,7,6,6,
5,5,4,4,
3,3,2,2,
{2}1b/8b,1hx[2:1],
,2,
2,3h[2:1],
,4/5,
4/5,5h[2:1],
,6,
6,7h[2:1],
,1/8,
{4},,8,8,
8,8,7,7,
7,7,6,6,
6,6,4/5,4/5,
4/5,,4,4,
4,4,3,3,
3,3,2,2,
2,2,1b/8b,,
,,(230)1-6[2:3],,
{1},
{4},(238),,,
{1},
(246)7-4[2:3],
{4},,,(252),
{1},
{2},(258)1-5[2:3],
{1},
{4},(266),,,
{1},
(288)4-1[0.2083##1.4304]/5-8[0.2083##1.4304],
(298),
(308),
(318),
(339)B1/Ch[4:29]/B2/B7/B8,
E
&inote_3=(230){1},,
{2}1,1,
2,2,
3,3,
4,4,
5,5,
6,6,
7,7,
{1}1x/8x,
{4}7,7,7,,
6,6,6,,
5,5,5,,
{1}3/4,
{4}2,2,2,,
3,3,3,,
4,4,4,,
{1}5/6,
{4}6,6,6,,
7,7,7,,
8,8,8,,
{1}1/2,
{4}3,3,3,,
2,2,2,,
1,1,1,,
{1}7/8,
6h[1:1],
5h[1:1],
4h[1:1],
3,
3h[1:1],
4h[1:1],
5h[1:1],
6,
7h[1:1],
6h[1:1],
5h[1:1],
4,
2h[1:1],
3h[1:1],
4h[1:1],
5b,
{4}3,3,2,2,
1,1,7/8,,
6,6,7,7,
8,8,1/2,,
2,2,3,3,
4,4,5/6,,
7,7,6,6,
5,5,3/4,,
{1}2-5[4:3],
{4},,,6-3[4:3],
{1},
{2},2-6[4:3],
{1},
{4},7-4[4:3],,,
{1},
3-6[4:3],
{4},,,7s3[1:1],
{1},
{2},(240)1hx[2:1]/2hx[2:1],
,(250)3hx[2:1]/8hx[2:1],
,(260)4hx[2:1]/7hx[2:1],
,(270)5hx[2:1]/6hx[2:1],
,Chf[1:7],
{1},,,,,,,
{2},(230)B2,
B3,B4,
,B7,
B6,B5,
,B2,
B3,B4,
B5,B6,
B7,B1/B8,
,B4,
B3,B1/B2,
,B5,
B6,B7/B8,
,B3,
B2,B1,
B8,B7,
B6,B4/B5,
{4},,3,3,
3/4,,2,2,
1/2,,8,8,
7/8,,5/6,5/6,
4/7,,6,6,
5/6,,7,7,
7/8,,1,1,
1/2,,3/4,3/4,
2/5,,1/2,1/2,
1/2,,3/8,3/8,
3/8,,4/7,4/7,
4/7,,5/6,5/6,
5/6,,7/8,7/8,
7/8,,1/6,1/6,
1/6,,2/5,2/5,
2/5,,3x/4x,3x/4x,
3x/4x,,(230)3,3,
1/2,1/2,8,8,
7/8,,6,6,
7/8,7/8,1,1,
1/2,,2,2,
3/4,3/4,5,5,
5/6,,7,7,
5/6,5/6,4,4,
3/4,,4,3,
1/2,1/2,8,7,
5/6,,5,6,
7/8,7/8,1,2,
3/4,,2,3,
4/5,4/5,6,7,
1/8,,7,6,
4/5,4/5,3,2,
1/8,,2,2,
1/2,1/2,3,3,
3/4,3/4,5,5,
5/6,5/6,7/8,7/8,
1/6,,7,7,
7/8,7/8,6,6,
5/6,5/6,4,4,
3/4,3/4,1/2,1/2,
3/8,,1,2,
3,4,5,6,
7,8,1,2,
3,4,5,6,
7/8,,7,6,
5,4,3,2,
1,8,7,6,
5,4,3,2,
{2}1/8,(230)7-4[4:3],
{1},
{4},(238)3-6[4:3],,,
{1},
(246)7-3[4:3],
{4},,,(252)2-5[4:3],
{1},
{2},(258)6-3[4:3],
{1},
{4},(266)2z6[1:1],,,
{1},
(288)7hx[2:1]/8hx[2:1],
(298)1hx[2:1]/6hx[2:1],
(308)2hx[2:1]/5hx[2:1],
(318)3hx[2:1]/4hx[2:1],
(339)Chf[1:7],
E
&inote_4=(230){1},,
1-6-4-1<1[2:7],,,,
{8}8`2h,,,8`3h,,,8`4h,,
,8`5h[8:15],,,,,,,
{1}1p8[8:6],
{4},,,8-4[8:1],
{16}1xb,,,,2/5,,,3,4,,4,,2-5[8:1],,,,
8,,,,4/6,,,7,5,,5,,6v5[8:2],,,,
3,,4h[8:2],,,,6,,4,3,2,,7,,,,
5,6,7,8,3,4,5,6,7,8,1,2,3/6,,,,
4,3,2,1,7,6,5,4,3,2,1,8,7/3,,,,
7,6,5,4,2,1,8,7,6,5,4,3,2,1/5,,,
1,2,3,4,8,7,6,5,4,3,2,1,8/4,,,,
{8}1h[4:1]`7h[4:1],,,2h[16:1]`6h[16:1],,3h`5h,,4h,
{16}8b,,,,7/4,,,6,5,,5,,7-4[8:1],,,,
1,,,,5/3,,,2,4,,4,,3v4[8:2],,,,
6,,5h[8:2],,,,3,,5,6,7,,2,,,,
4,3,2,1,6,5,4,3,2,1,8,7,6/3,,,,
5,6,7,8,2,3,4,5,6,7,8,1,2/6,,,,
2,3,4,5,7,8,1,2,3,4,5,6,7,8/4,,,
{32}3x,E4,E5,,,,,,8,,,,2x,B2,C,B6,,,,,7,,,,3x,E4,E5,,,,,,
{8}2x/6x,2x/6x,3x/7x,3x/7x,4x/8x,4x/8x,5x/1x,5x/1x,
{8}2<3[8:26]/6h[8:3],,,,,,5,,
4h[8:3],,,,,,3,,
{8}2,,,2,,,2,,
,2,,,1,,1,,
{8}2/7-5-2-7[8:22],,,2,,,2,,3,,,3,,,3,,4,,,4,,,4,,,4,,,
{16}E4,B3,B2,E2,E6,B6,B7,E8,
{8}4h[4:1],,,3h[4:1],,7,2h[4:1],,
6,1h[8:2],,5,5-7[8:1],,3,,
{8}8h[4:1],,4,7h[4:1],,3,6h[4:1],,
2x,5h[8:2],,1x,1-3[8:1],,8x,,
{8}4h[4:1],,6,3h[4:1],,5,2h[4:1],,
4,1h[8:2],,4,4-6[8:1],,2,,
{8}7h[8:2],,5,6h[8:2],,4,5h[8:2],,
{12}3,2,1,4,5,6,2,3,4,6,7,8,
{8}2,2>5[32:6],,8h[8:2],,,,7-5[8:1],
1,1,,2,1-5[32:5],7<8[32:16],,,
{16},,,,,,,,,,4h[16:3],,7,8,1,2,
3,4,5,6,1,2,3,4,7-4[32:5],,5-2[32:5],,,,,,
{8},,,1-3[32:5],,8,,6h[8:2],
{16},,7,8,1,2,3,4,1,8,7,6,4,3,2,1,
{8}5,5-1[8:1],,4,,{384}3,{8},{384}2-6[32:5]/8,,,,,,,,,,,,,,,,,,,,,,,,,,,,,,,,,,,,,,,,,,,,,,,,,,,,,,,,,,,,,,,,,,,,,,,,,,,,,,,,,,,,,,,,,,,,,,,
{8}8b,8b,8b,8b,3xb/7xb,6xb/2xb,1xb/5xb,,
1-3[8:1],,7,6-8[8:1],,5,4-6[8:1],,
{16}2,,2,,7,,7,,1xh[16:1],,1xh[16:1],,
{8}8-6[8:1],,2,3-1[8:1],,4,5-3[8:1],,
{16}7,,7,,2,,2,,8xh[16:1],,8xh[16:1],,
{8}1-7[8:1],,2,3-1[8:1],,6,5-3[8:1],,
{16}6,,6,,1,,1,,5xh[16:1],,5xh[16:1],,
{8}8-2[8:1],,7,6-8[8:1],,3,4-6[8:1],,
{16}3,,3,,8,,8,,4xh[16:1],,4xh[16:1],,
{8}7-4[8:1],,1,2-7[8:1],,4,5-2[8:1],,
{16}7,,7,,3,,3,,1xh[16:1],,1xh[16:1],,2-5[8:1],,,,
{8}8,7-2[8:1],,6,5-1[8:1],,4,4,
{24}8,,,8,,,2x/7x,,,,,,(240)6x/5x,,,,5/4,,,,4/3,,,,
{6}6/5,4/5,3/4,(250)2x/5x,6/3,4/7,
2/5,6/3,4/7,(260)4x/8x,3/7,2/6,
4/8,3/7,2/6,(270)2x/4x,4/5,5/7,
2/4,4/5,5/7,
2hb[4:8]/4b-8[8:56],,,
{16},,,,,,,,,,,,,,,,,,,,,,,,,,,,
,,,,,,2h[16:1],,,,,,,,,,,,3h[16:1],,,,,3h[16:3],,,,,
,,2h[16:2],,,,,,,2h[16:1],,,,,2h,,2h,,2h,,3h[16:3],,,,,,,,
,3h[16:4],,,,,,,,,,3h[16:4],,,,,,,,,,,,,,,,,
{2},(230){8}6h[2:3]/5h,,,5h,,5h,5h,,4h,,4h,,
{8}3h,3h,,,2h[2:3]/4h,,,4h,,4h,4h,,5h,,5h,,6h,6h,,
{8},E8/5h,,,B7/5h,
,5h,5h/B6,,4h,E6,4h,,
{8}3h,3h,,,5h,,,5h,,5h,5h,,4h,,4h,,5h[8:1]/4h[8:1],,,,
{8}4-1[8:8],,,5,
{8},,6,,7,,7,,
{8}8h[16:1],8h[16:1],,,{8}3-8[8:8],,,4,
{8},,5,,6,,7,,
{8}1h[16:1],1h[16:1],,,2-7[8:8],,
{8},3,,,4,,5,,
{8}5,,6,6,,,8-4[8:4],,,,,,
,,C,,,,
{16},,,,1-5[8:1]b,,,,2b,,,,4,,6,,
3,,4,,2/5,,,,8/3,,,,4,,4,,
{8}6,5,6<8[8:1],,3,,2,2,
1h[16:1],1h[16:1],8,,2,4,3,3,
4/7h,6h,6h,,2/8h[8:2],,3,3/7h[8:2],
{16},,4,,6h[8:2]/4,,,,5,,,,2,,2,,
4,,4,,5>1[8:2]/3,,,,2h[8:2],,,,B1,B8,B7,B6,
B5,B4,B3,,1<5[8:2],,,,7h[8:2],,,,B5,B4,B3,B2,
B1,B8,B7,,5,,,,2x/8x,,3,,1,,2,,
{8}7,1,8h[8:2],,5,7,4,6,
3/5,3/5,4,,{16}6/4,,7,,5,,6,,
{8}2,5,3h[8:2],,4,3,5,2,
1/7,8,8,,1/2,8,3,7/4,
3,4,5/2,,4/6,3/5,,2,
{16}1/8,,1/8,,2/7,,,,7,6,7,6,7b,,2,3,
2,3,2b,,8s4[8:4],1s5b[16:7],8,1,{24}8x,,,,,,,,,,,,
{8},,2/7,,(230){32}6h[16:4]/8,1,2,3,,,,,,,,,7h[4:1]/1,
2,3,4,,,,,,,,,8h[4:1]/2,3,4,5,,,,,,,,,7h[8:1]/1,2,3,4>8[24:4],,,,,,,,,
{16}8,7,6,5,B7,B6,B5,B4,{32}3xh[8:2]/8x,7x,6x,5x,,,,,,,,,6xh[8:2]/1x,2x,3x,4x,
{8},,{32}3xh[8:2]/8x,7x,6x,5x,,,,,,,,,6xh[8:1]/1x,2x,3x,4x>8[24:4],,,,,,,,,
{16}8,7,6,5,B7,B6,B5,B4,{32}3xbh[8:2]/1x,8x,7x,6x,,,,,,,,,2xbh[8:2]/8,7,6,5,
{8},,{32}1xbh[8:2]/7,6,5,4,,,,,,,,,8xbh[8:2]/6,5,4,3,,,,,,,,,
{16}8,1,2,3,5,6,7,8,1/3,,,,3/5,,2,,
1/7,,6,,4/5,,,,4/6,,4/6,,3,,4,,
2/5,,2/5,,,,,,1/7,,3/5h[8:3],,,,8,,
8,1,2,3,4/5,6,7,8,1/2,,4/7h[8:3],,,,5,,
5,4,3,2,1/7,6,5,4,3/1,,1h[8:3],,,,4,,
4,5,6,7,8/1,2,3,4,5/6,,8/3h[8:3],,,,1,,
1,8,7,6,5/3,,,,8/7,,1/6,,2/5,,1/8,,
2/7,,3/6,,1/2,,3/8,,4/7,,1/8,,2/7,,3/6,,
4,3,2,1,5,6,7,8,2,1,2,1,3,8,3,8,
4,7,4,7,3,6,3,6,1b,2,3/8,7,6/2,3,7/4,6,
{16}5/1b,2,3/8,7,6/2,3,4/1,8,
{8}7b<5-3-8-5>1[4:13]/Cf,,,,
{1},,,
{8},,,,B6,,4,E8,
,4,4,C,,,B7/B4,,
B6/B2,,3/5,,6,,5/7,,
,2,1-4-6-1[16:11]/2>8[16:11],,,,,,
,,,,5,3,4,2h[4:1]
,
{16},,4,,5,,6h[8:2],,,,4,,7,,5h[4:1],,
,,6,5,6,5,6,,4,,6,,5,,7h[4:1],,
,,5,,4,,3h[4:1],,,,4h[8:1],,2h[8:1],,8,,
4,3,2,,5,6,7,,2,,1h[16:1],,3,,6,,
{8}8h[16:1],6,2,4h[16:1],2,8,5h[16:1],8,
{16}5,4,3,2,5,6,7,8,{8}2V48[16:5]/1,,4,5,
,7,1,,6b/4b,6/4,7/3,7/3,
{16}8/2,,8/2,,1b,,,,(230)4/7,,6,,5,,2/4,,
{8}1,8,7/3,8,1,2/6,1-4[8:1],8-5[8:1],
,,(238)3,4,5,3/6,2,1,
4/8,5,4,3/7,6-1[8:1],2-5[8:1],,,
(246)7,8,1,2/5,6,5,4/7,8,
1,2/6,3-8[8:1],4-6[8:1],,,(252)1,2,
3,4/6,5,6,4/7,8,1,2/5,
1-5[8:1],8-6[8:1],,,(258)4,4,3/5,3/5,
6,7/4,7-4[8:1]/4,,2-6[8:1],2,8v3[8:1],8,
1h[16:1],1h[16:1],(266)5,5,4/6,4/6,3,2/8,
2-6[8:1]/8,,5-1[8:1],5,3,3,8h[16:1],8h[16:1],
(288){16}2,3,4,5,6,7,8,1,2,3,4,5,6,7,8,1,
(298)5,4,3,2,1,8,7,6,5,4,3,2,1,8,7,6,
(308){128}3,{24},{128}2,{24},{128}1,{24},{128}8,{24},{96}7,,,,,{128}6,{24},{128}5,{24},{128}4,{24},{128}3,{24},{96}2,,,,,{128}1,{24},{128}8,{24},{128}7,{24},{128}6,{24},{96}5,,,,,{128}4,{24},{128}3,{24},{128}2,{24},{128}1,{24},{96}8,,,,,
(318){128}5,{24},{128}6,{24},{128}7,{24},{128}8,{24},{96}1,,,,,{128}2,{24},{128}3,{24},{128}4,{24},{128}5,{24},{96}6,,,,,{128}7,{24},{128}8,{24},{128}1,{24},{128}2,{24},{96}3,,,,,{128}4,{24},{128}5,{24},{128}6,{24},{128}7,{24},{96}8,,,,,
(339)1>3-5-8-3<7[4:14]*>3-5-8-3<7<5-3-8-5>1b[1:7],
E
&inote_5=(230){1},,
1-4>3-6>5-8<7-2<1[2:7]/8h[8:41],,,,
{8}1,,,2,,,3,,
,4h[8:21],,,,,,,
{1}Ch[1:1],
{4}B1/B2,,,8-4[8:1]b,
{16}8b,,,,3/5,,,2,4<7[8:1],,4,,1-5[8:1],,1,,
8,,,,4/6,,,7,5>2[8:1],,5,,8-4[8:1],,8,,
1,,,,3/5,,,2,4,,4,,3/5h[4:1],,,,
4,3,2,1,8,7,6,5,8,7,6,5,8,7,6,5,
4b,3,2,1,8,7,6b,5,8,7,6,5,8,7,6b,5,
1,2,3b,4,5b,6,7,8,5b,6,7,8,5,6,7b,8,
1,2,3b,4,5,6,7,8,5,6,7b,8,5,6,7,8,
{8}1h[4:1],,5,2h[16:1]/6h[16:1],,4/8,4/8-4[8:1]b,,
{16}1h[16:1]/8b,,,,3/5,,,2,4<7[8:1],,4,,1-5[8:1],,1,,
8,,,,4/6,,,7,5>2[8:1],,5,,8-4[8:1],,8,,
1,,,,3/5,,,6,4,,4,,4h[4:1]/5,,,,
5,6,7,8,1,2,3,4,1,2,3,4,1,2,3,4,
5b,6,7,8,1,2,3b,4,1,2,3,4,1,2,3b,4,
8,7,6b,5,4b,3,2,1,4b,3,2,1,4,3,2b,1,
{4}4/8-4-2[4:1]*-4-6[4:1],,,1/7,
{8}4/8,8,3/7,3,2/6,6,1/5,1,
{1}4h[4:3]/8h[8:3],
1h[8:3]/3h[4:3],
{8}3h[8:3],,,4h[8:3],,,5h[4:3],,
,6h[8:5],,,,,,,
{1}7h[4:3]/8h[8:3],
6h[4:3]/7h[8:3],
{8}5h[8:3],,,4h[8:3],,,3h[8:3],,
{4},,{32}E2,E1,E8,E7,E6,E5,E4,E3,{4}E2,
{8}4h[4:1],,,4h[4:1],,,4,4,
3h[4:1]/5h[8:1],,5,3h[8:1]/5h[4:1],,3,3/5,,
5h[4:1],,,5h[4:1],,,5,5,
4h[8:1]/6hb[4:1],,4,4hb[4:1]/6h[8:1],,6,4/6b,,
4/5,4v3[8:1]/5,,5v6[8:1],,,,2/7,
{16}1,8,1,8,1,,,,,,7,,8,,7,,
{8}2,1-6[8:1],2,1-4[8:1],,1,,6h[8:1],
{12}4,4,5,3,3,6,2,2,7,1,1,8,
{8}2-5[8:1],7-4[8:1],2,7,,1,8,7<5[8:1],
1,7,,2>4[8:1],8,2,7,6h[4:1],
{16}5,,5,,,,4b/7b,,,,3,4,5,6,7,8,
1/5,4,3,2,1,4/8,3/7,2/6,1/5,,4<7[8:1]/8>3[8:1],,,,4/8,,
{8},,3/6,4-1[8:1]/5-8[8:1],,4/5,,2b/7b,
{16},,6,5,4,3,2,1,4/8,5,6,7,8,1/5,2/6,3/7,
{8}4/8,1-5[8:1],,1/4,,{384}2/6,{8},{384}2-6[384:47]b,,,,,,,,,,,,,,,,,,,,,,,,,,,,,,,,,,,,,,,,,,,,,,,,,,,,,,,,,,,,,,,,,,,,,,,,,,,,,,,,,,,,,,,,,,,,,,,
{8}Cf/8b,8b,8b,8b,2b/8b,2b/8b,2b/8b,2b/8b,
1>3[8:1],8,1,7<5[8:1],1,7,8>2[8:1],7,
{16}8,,5,,5,,2/5,,3,4,3,4,3-1[8:1],,5,,
{8}3,8<6[8:1],3,8,3<5[8:1],8,3,7-3[8:1],
3,7,1b,,2-6[8:1],1,2,1<7[8:1],
2,1,3<5[8:1],1,3,7,7,4/7,
{16}6,5,6,5,6-2[8:1],,4,,6,,5>3[8:1],,7,,5,,
{8}7>1[8:1],5,7,2-6[8:1],4,2,8b,,
7-4[8:1],5,7,3-8[8:1],5,3,6-3[8:1],1,
{16}6,,2,,2,,2/8,,7,1,7,1,7-5[8:1],,8,,
{8}7,2-8[8:1],4,2,6-4[8:1],1,6,2,
{24}2,,,2,,,1b/8b,,,,,,(240)5/7,,,,5/7,,,,5/7,,,,
{6}3/5,3/5,3/5,(250)1/3,1/3,1/3,
1/8,1/8,1/8,(260)1/8,2/4,4/5,
5/7,1/8,2/4,(270)2h[12:1]/4h[12:1],1h[12:1]/8h[12:1],5h[12:1]/7h[12:1],
4h[12:1]/5h[12:1],2h[12:1]/4h[12:1],1h[12:1]/8h[12:1],1hb[4:27]/8b<8<8<7-5>4-2<1-7<6-4>3-1<8-5[2:13],,,
{1},,,,,,,
{2},(230)5h[2:3]/6>5-8<7-2[4:5],
{1},
{2},3hx[2:7]/4>3-6>5-8[4:5],
{1},
{8},,,,B5/B6/E6/D6,,,E4,
,,B1/B2/E2/E3,,,B7/B8/D8,,,
{2}B5/A5/B6/E6,C/4h[4:7],
,6h[4:1],
{4}5h[4:1],,2hb[4:1]/6,5h[4:1],
{8}4h[4:1],,6,6,4,5,5,4,
{4}3v4[4:1],5,6hb[4:1],4h[4:1],
{8}5h[4:1],,3,3,5,4,4,5,
{4}6v5[4:1],4,2hb[4:1],4h[4:1],
{8}3h[4:1],,5,5,3,4,4,3,
{4}2v4[4:1],5,6p2<8[16:9]b,5,
4,3,3h[4:3]/7h[2:1],,
{16},,,,8-4[8:1]b,,,,8b,,,,3/5,,,2,
4<7[8:1],,4,,1-5[8:1],,1,,8-3[8:1]b,,,,3/8,,,4,
{8}5v8[8:1],5,2,2,1-6-8[4:1],1,4,4,
5,5,1/5,1/5,2/4,2/4,4/5,4/5,
5h[16:1]/7h[16:1],5h[16:1]/7h[16:1],6h[16:1]/7h[16:1],6h[16:1]/7h[16:1],6/7<4[8:1],,1/7,2-6[8:1],
{16},,1/2,8,7-3[8:1],,,,4/7,,2h[4:1],,,,5,,
3/6,,3/6,,1/8h[4:1],,,,1,2,3,4,5/7,4,3,2,
1/8,7,6,5,2/4,5,6,7,1/8,2,3,4,5/7,4,3,2,
1/8,7,6,5,3/4,5,6,7,1/8-3[8:1],,,,1,,2,,
{8}4-7[8:1],2,1,,1v6[8:1],8,1,7,
5v2[8:1],6,5,,1-6[8:1]/8,,8,7,
5-2[8:1],7,8,,8v3[8:1],1,8,2,
4v7[8:1],3,4,,8h[4:1],,6,6h[4:1],
,4,4h[4:1],,2,2h[4:1],,1,
{16}1,,,,3/7,,,,6,4,6,4,6,,2,5,
2,5,2,,7-5-8-4-1-3[4:3]b,8,7,8,7b,,,,,,,,
{8},,,,(230)1-5[8:1]/4,1,7,7h[4:1],
,4,4,2h[4:1]/6,,8,3/7,3/7,
{16}6,6,4,4,5,5,3,3,4<7[8:1],,1,,2,,2h[4:1],,
{8},8,8,5/7h[4:1],,1,2/6,2/6,
{16}3,3,5,5,4,4,6,,3b/7b,,2,1,2,,3/8,,
2,1,2,,3/7,,2,1,2,,3/6,,1,8,1,8,
1,2,3,4,5/6,7,8,1,3,4,3,4,3h[8:1],,7,5,
6,5,7h[8:1],,2,4,3,4,2h[8:1],,5,3,5,3,5,3,
4,4,5,3,4,4,5,3,6b-8[8:1],,4-6[8:1],,6,,4,,
1,2,3,4,5/8,1,2,3,7-5[8:1],,5-1[8:1],,7,,2,,
2,3,4,5,2/6,1,8,7,3b-1[8:1],,5-3[8:1],,3,,5,,
8,7,6,5,1/4,8,7,6,2-4[8:1],,4-8[8:1],,2,,7,,
7,6,5,4,3/8,1,2,3,4/8b,,6,5,6,,1/5,,
3,4,2,,5/6,,7,8,7h[8:1],,2,8,2,8,2,8,
1,1,2,8,1,1,2,8,3,7,3,7,4,6,4,6,
3,5,3,5,2,6,2,6,1h[16:1],,2/8h[16:1],,3h[16:1]/7,,4/6h[16:1],,
{8}8h[16:1],1h[16:1]/7,2/6h[16:1],3h[16:1]/5,4b-1>2-7>8-5<6-3<4[2:7]/6hb[4:15],,,,
{1},,,
{8},,,,6,6,5/7h[8:3],,
,5,4/6,,3,3,2h[8:3]/4,,
,4,3/5,,6,6,4/7h[8:3],,
,8,8z4[2:1],,,,,,
,,3/5,,6,6,5,7h[4:1],
{16},,4,6,4,6,4,,3/5,,3,,4,,2h[4:1],,
,,5,3,5,3,5,,4/6,,6,,5,,7h[4:1],,
,,5,6,4,6,4,,3/5,,3,,4,,2h[4:1],,
,,4,3,5,3,5,,4/6,,4h[16:1]/6h[8:1],,,,3/5,,
{8}3h[8:1]/5h[16:1],,4/6,4h[16:1]/6h[8:1],,4/5,4h[16:1]/5h[8:1],,
4h[8:1]/6h[16:1],,3h[8:1]/7h[16:1],,2/8,2,3/4,2,
1/7,7,5/6,4,3b/5b,3/5,2/6,2/6,
{16}1/7,,1/7,,8,2,8,2,(230)1b<6[8:1],,2,,3,,4>1[8:1],,
{8}5,6,7<4[8:1],8,1,2<7[8:1],3,4,
5h[16:1],5h[16:1],(238)5b<8[8:1],4,3,2>5[8:1],1,8,
7>2[8:1],6,5,4<7[8:1],3,2,1b,,
(246)2b-7[8:1],3,4,5-2[8:1],6,7,8-5[8:1],1,
2,3-8[8:1],4,5,6h[16:1],6h[16:1],(252)6b-1[8:1],5,
4,3-6[8:1],2,1,8-3[8:1],7,6,5-8[8:1],
4,3,2b,,(258)6b>5-3[8:1],7,8,1<8-6[8:1],
2,3,4>3-1[8:1],5,6,7<6-4[8:1],8,1,
2h[16:1],2h[16:1],(266)2b>3-5[8:1],1,8,7>8-2[8:1],6,5,
4<5-7[8:1],3,2,1,8,7,1/6hb[4:1],,
(288){16}8b,1,2,3,8,1,2,3,8,1,2,3,8,1,2,3,
(298)4x/8b,7,6,5,8,7,6,5,8,7,6,5,8,7,6,5,
(308){128}4x/8b,{24},{128}1,{24},{128}2,{24},{128}3,{24},{96}4,,,,,{128}8,{24},{128}1,{24},{128}2,{24},{128}3,{24},{96}4,,,,,{128}8,{24},{128}1,{24},{128}2,{24},{128}3,{24},{96}4,,,,,{128}8,{24},{128}1,{24},{128}2,{24},{128}3,{24},{96}4,,,,,
(318){128}5x/8b,{24},{128}7,{24},{128}6,{24},{128}5,{24},{96}4,,,,,{128}8,{24},{128}7,{24},{128}6,{24},{128}5,{24},{96}4,,,,,{128}8,{24},{128}7,{24},{128}6,{24},{128}5,{24},{96}4,,,,,{128}8,{24},{128}7,{24},{128}6,{24},{128}5,{24},{96}4,,,,,
(339)3>2-5>4-7<6-1<8-3[1:7]/7-4<5-2>3-8>1-6<7[1:7],
E
