&title=PRAGMATISM -RESURRECTION-
&artist=Laur
&first=0
&des=Project_AC
&lv_6=14+
&inote_6=(174)
{4},,,,
{24}6,5,,4,,,,,,5/3h[16:6],,,
{24},,,4,,,5,,
,,,,3,4,,5,,,,,,5/6h[16:6],,,,,,5,,,4,,,3,,,6,4,,3,,,,,,
5h[4:1]/3,,,,,,4,,,6h[4:1],,,,,,5,6,,,,,,,,45,,,,,,34,,,25,,,
{16}1,8,1pp4[16:8],,7,,6,,5^8[4:1],,,,,,,,,,
{24}1,2,,3,,,4,,,5,,,6pp1[4:2],,,
{16},,2^5[4:1],,,,2,,,,,,8,,,,2,,6,,,,5<1[4:2]/1>5[4:2],,,,,,,,,,,,,,,,
B5f/E6/A5/7bx^4q1[4:2],,,,,,,,1>7[4:2],,,,,,,,Cf/B2/B1,,,,,,4,,4>8[4:1],,,,
8q6>2[4:3],,,,B7/E8f/A7,,,,,,1,,,,7,,7,,1,,5bxV74[2:1],,,,4,,3-8[8:1],,,,3,,,,,,
1bx>5[4:1]/5bx,,,,,,6,7,8xh[4:1],,6,,5,,,,1h[2:1]/7,,,,,,3,,4,,,,26,,,,
4bp3[4:2]/8,,,,,,7,,,,6,,5-1[4:3],,,,5bh[4:1],,,,,,,,,,,,,,,A1/A5,D2/D6,,
,3,3h[4:1],,B1/B8,,,7,7,4,6h[8:1],,B3/B2,,
5x,,1,,7>3[8:1],,3<7[8:1],,,,,,2,,2,,8-4[8:1],,4-1[8:1]*-7[8:1],,,,,,,,,,
26,,,,
4x,,8,,2<6[8:1],,6>2[8:1],,,,,,7,,7,,1-5[8:1],,5-8[8:1]*-2[8:1],,,,,,,,,,
73,,,,1/5<1[8:1],,2,,3,,4,,5>1[8:1],,8,,7,,6,,5,1,6,2,7,3,8,4,
{24}1,2,3,4,5,6,7,8,1,2,3,4,5V73V15b[4:3]/1h[2:1],,,,,,,,,,,,,,,,,,,,,,,,
{16}2,,,3,,,46,,,7,5,,4-1[8:1]/8<4[4:1],,,,4V62[8:2]/8,,,,
2,,1-5[8:1],,,,1,,8q1[8:3],,,,4/8,,3,,,,2v5[8:1],,8,,7,,6,,4,,35,,35,,46,,
4>8[4:1]/6,,,,5,,6p4[8:3],,,,1,,2,,,,3,,5,6,73,,2,,15,,1<3[4:2]/5h[4:1],,,,,,
6h[4:1],,,,,,7-3[8:1],,,,1-7[8:1]/7-5[8:1],,,,1-3[8:1],,,,1-5[8:1],,,,
1/8>6[2:1],,,,4h[4:1]/8,,,,,,3xh[4:1],,,,,,2-4[8:1]/7-5[8:1],,18,,2/7,,,,
3/6,27,1/8,,7,7,B3,B6,Cf,,,,
{24}2x/7x,3x/6x,4x/5xpp1[4:2],,,,
{16}4,,3,,,,1<4[4:2],,2,,,,3,,4>7[4:2],,,,,,5,,4,,3,,2,,1/6,,
1>6[8:4],,5,,1,,,,6<4[4:2],,7,,,,5,,4<2[4:2],,,,,,4x,,5,,6,,7,,
3/8-3[8:1],,3>6[4:2],,8,,4h[4:1],,,,,,3,,2,,5/1-6[8:1],,6<3[4:2],,1,,
5h[4:1],,,,,,6,,7,,4>8[4:1]/7,,,,8<4[4:1],,,,4V28-6[8:3],,,,
8V64[4:1]*<4[4:1],,,,,,,,A4/E5/E4/B4,,2x,,,,8x,1,
7xbv4[8:1]*<8[1:2],,,,
{64}7b,Cf/B3/B6/A6,,,,,,,,,,,,,,,
{8},,,,,,,,,,,,
{24}B4,E4,,,,,C,,,,,,,,,B7/B8,,,,,,,,,E6,,,E5,,,E4,,,,,,,,,B2/B1,,,,,,,,,
{16}E8,E7,E6,E5,E4/Cf,,,,,,,,,,,,,,,,
{16}2h[8:3],,,,,,3h[8:3],,,,,,4h[4:1],,,,5<4[4:3]*>6[4:3],,,,,,,,,,,,,,,,,,
5,4,5,3,6,,45,,6,5,4,3,4,5,
6b^3[8:1]*^8[8:1],,,,6,,,,
2^8[8:1]*^4[8:1],,,,2,,,,
7x^2[8:1]*^5[8:1],,,,7,,,,
3^6[8:1]*^1[8:1],,,,3,,,,
7-1[8:1]*^5[8:1],,,,7,,,,
3^5[8:1]*-1[8:1],,,,3,,,,
8^6[8:1]*-2[8:1],,,,8,,,,
5-7[8:1]*^3[8:1],,,,5,,,,
2/8,,7,,26,,3,,47,,6,,53,,2,,35,,6,,47,,47,,56,,
45,,34,,12,,
{16}3x/8x,7,6,5,4x/8x,3,2,1,
{24}8x/4x,5,6,7,8,1,
{32}6x/2x,5,4,3,2,1,8,7,6x/4bs8[19.5#33:1],,,,,,,,
{8},,5z1b[25#32:1],,,,,,,,,,,,,,,,,,
{16}1-5[8:1]/8-4[8:1],18,27,,1b/8b,,,,3/6,,2,1,2,,4,3,5/2v5[8:1],,,,
2/5^4v7[8:1],,6,,7pp4b[8:3],,,,8-4[8:1],,,,A8f,,,,27,,6,5,
7v4[8:1],,8,,4-8[8:1]/7,,,5,4/6,,,,
1/7,2,3,4,5/1-3[8:1],8,7-4[8:1],6,5/1-5[8:1],,,,1x,,,
37,37,,2,8,1,,6,4,5,3,4,2,2/B4,,,7,7/B1,,56,,34,,2,1,2,,6,5,
47,,4/8,,1/8,,7,,6/2,,3,4,2,,5,3,6-1[8:1]/3-8[8:1],,,,
3x/6,,,,
{24}2x/7,E3/E7,B3/B6,B4/B5,E5,,B1/E2/B8/E8,,,,,,
{32}1x-5[8:1]/8x-4[8:1],2x/7x,3x/6x,,,,,,
{16}1xb/8xb,,,,
2-5V37[2:1]/7,,,,7-1[8:1],,6,,7<7[4:2],,,,1x,,,,7V14[4:1],,,,6,,,,
5x-1[8:1],5,,,5xb/6bV82[4:1],,,,6/2-6-4[4:1],,,,4q5<1[8:6],,,3,,,2,,
2^5[4:1]b,,,,,,,,,,,,5^2[8:1]/1^6[8:1],,,,5xb/1b,,,,
15,,2,4,3,,5,4,6,5,7,,18,,2,5,3,,4,3,5,2,6,4,7xv4[8:1],,,,
4<3<1[4:6]/7,,5q3<1[8:11]b,,,,,,,,,,,,,,,,,,,,,,,,,,,,,,
{8}Cf,,,,,,,
{24},B2,B3,E4/6h[8:3],,,,,,,,,
{16}4h[4:2],,,,,,,,5,4,5h[8:3],,,,,,,,B3/B7,,,B1/B5,,,2,,6h[4:1],,,,5,,,,
2h[4:1],,,,1,,,,4b/8b<3[4:2],,,,3,,,,2,,,,1,,1,,
1h[4:1]/3q8[4:1],,,,,,,,6p1[4:1],,,,7h[8:1],,,,7p4[2:1],,,,,,,,
4>5[4:4],,,,,,,,Chf[1:1],,,,,,,,,,,,,,,,
5,6,7,4,3,2,6,7,81,2,3,4,
{32}58,7,6,5,4,3,2,1,
{16}8b/Cf,,,,
5<2[4:1]/6,,7xh[4:1],,,,,,6h[8:1],,3,4,5b/6b,,7,,
8/1,27,36,,3,4,2x,,8/1p4[4:1],7,6,5,4>6[8:3]/1x,,,,5,,6>2[8:3],,,,,,
8,7,6,5,4x,1,8,7,6,5,2x,1,8,7,6x,5,4v7[8:1]/8-3[8:1],,,,8/4<2[4:2],,,,,,
7h[4:1],,,,,,6h[8:1],,3,4,5b/6b,,7,,8-4[8:1]/1,,,,2-7[8:1]/8,,3,,
2/6,,,,
1x/5x,26,37,,C,,1/8,27,36,,C,,15,26,37,,C,,1/8,72,63,,C,,
15,26,37,48,
{24}15,2,3,4,5,6,7b/2b,,,,,,
{16}4>7[4:1]/3,,2xh[4:1],,,,,,3h[8:1],,6,5,4b/3b,,2,,
1/8,72,63,,6,5,7x,,1/8q5[4:1],2,3,4,5<3[8:3]/8x,,,,4,,3<7[8:3],,,,1x,,
1,2,3,4,5x,8,1,2,3,4,7x,8,1,2,3x,4,5q1[8:1]/1q5[8:1],6,7,8,1/5>7[8:3],,,,,,
6h[16:3],,,,6,,5,,16,27,8b-4[8:1]/3b,,4-8[8:1],,,,5,,,,3,,
2/7-4-8[2:1],,2/7,,
2x/7x,,,,8-3[4:1],,2,,,,4,,5<3[8:3],,,,4,,4,5,6,7,8,1,2,3,4,5,
6p1[4:4]/2p5[4:4],37,48,15,2b/6b,,,,,,,,,,,,,,,,,,,
6,,,53,,,2,4,,5<1[4:1]/1-5[8:1],,,,1>1[4:3]/5,,,,,,,,,,,,1>1[4:3]b,,,,,,,,,,,,
1>1[4:2],,,,,,,,B3/B4/E4,,,,5,4,3,2,8,7,6,5,4,3,2,1,6,5,4,3,1,8,7,6,8,7,6,5,
1-5[8:1],2,3,4,1bV74[4:3]*V36[4:3],,,,,,,,,,,,,,,,
,,,,
{24}2/7h[4:1],1,8,,6,5,4,3,2,1,6,5,4-8[8:1],3,2,1,8,7,6b/4x,,,,,,
{24}1,2,3,6,7,8,1,2,3,6,7,8,1,2,3,6,7,8,1,2,3,4,5,6,7,8,1,2,3,4,
{24}5/1x,,4x/8,,3/7x,,
2x/6,,
{48}1xh[24:2]/5,,E2/E6,E3/E7,,E4/E8,E5/E1,,E6f/E2f,,,,,,,,,,,,,,,,,,,,,
4b/8b,3b/7b,2b/6b,1b/5b,,,,,,,,,,,,
{8},,E
