&title=影色舞
&artist=MyGO!!!!!
&first=-0.7
&des=E-labyrinth_!!!!!
&lv_5=13
&des_5=E-labyrinth_!!!!!
&inote_5=
(166){4},,,,{1}6h[1:2]/2h[1:1],
{8},,,E6,E5,E4,E3,E2,
1xh[1:1],,,,,E1,E8,E7,
{16}5,,,3,{8}4,5/2,,7b,{4}7b,
{8}8/2,7,1/6,5h[8:1],,4/6,3,5/2,
{4}1h[8:1],{8}2/4,5,4/6,3,{4}5h[8:1],
{8}1/7,2,8/3,4h[8:1],,5/3,6,4/7,
{4}8h[8:1]/1h[8:1],7h[8:1]/2h[8:1],{8}5/3-7[8:1],6b,{4}6b,
{8}1/6,2,8/3,4h[8:1],,5/3,6,4/7,
{4}8h[8:1],{8}7/1pp5[8:3],1,8,7,{4}6,
{8}8/2,{16}1,7,1,7,1,7,2-6[8:1],8,2,8,{4}2b,
{8}4/7,4h[8:1]/7h[8:1],,6h[8:1]/5h[8:1],,1,2,3,
4h[4:1],,,8/E5,7h[4:1]/E4,E3,E2,6,
{4}4h[8:1],{8}3h[8:1],E1,2h[4:1]/E8,E7,E6,4,
{4}4h[4:1],5h[4:1],3h[4:1],6h[4:1],
{8}2h[4:1],{16}6x,5x,{8}4x,2x,6,4,6p8[4:1],4,
{4}3h[8:1],{8}2,8,2p4[4:1],8,{4}7h[8:1],
{8}6,5,3q1[4:1],3,{2}6h[4:1],
{8}1,1h[4:1],,8,7,{16}6,4,{4}5,
{8}3h[8:1],5h[8:1],2h[8:1],6h[8:1],,2b,{4}2b,
{8}8h[4:1],,,4/E6,3h[4:1]/E7,E8,E1,2,
{4}8h[8:1],{8}7h[8:1],E2,6h[4:1]/E3,E4,E5,8,
{4}8h[4:1],1h[4:1],{16}7h[8:1],,,2,{8}2h[8:1],6h[8:1],
2x,{16}7x,6x,{8}5x,4x,2,8,2p4[4:1],8,
{4}7h[8:1],{8}5,6,6p8[4:1],4,{4}3h[8:1],
{8}4h[4:1],,,7,{4}7h[4:1],{8}3,3h[4:1],
,5,{4}5h[2:1],3,3,
{8}7h[8:1],1h[8:1],6h[8:1],2h[8:1],,6b,{4}6b,
{8}1/8,{16}1,8,2,7,3,6,,,{8}2b,{4}2b,
{16}5,4,6,3,7,2,{8}8,,3b,{4}7-2[8:1]/3b-6[8:1],
{8},,7,6h[2:1],,3,,4h[2:1],
,5,,5,4,{16}5,3,5,3,5,3,
{8}5b,{16}4,6,,,{8}4,{16}5,3,,,{8}8,{16}1,7,
,,{8}2,3,{16}6,4,5,4,5,4,5x,6x,7x,8x,
{4}1bxq3b[8:3],,,4h[16:3],
{8}5/3h[8:1],{16}6,2h[8:1],{8}7,8/1h[8:1],,1,2,3,
{4}4b/5b,{8}4/6,{16}3,2,{8}1/7,7,{4}6/4,
{8}5/4-1[8:1],6,4/7,8,4/8-5[8:1],3,8/2,1,
6-1[8:1],4,6/3,2,4/2-5[8:1],5,2/6,7,
{4}8h[8:1]/7h[8:1],6h[8:1]/2h[8:1],{8}2/5h[8:1],3b,3b,6h[8:1],
{16}3h[16:3],,,7h[16:3],,,{8}2h[8:1],8h[4:1],2b,{4}2b,
{16},,3,4,{8}3,{16}6,5,{8}6,7/4,{4}4/7p3[8:1],
{8}7,1,2,3,5,6,7<3[4:1],8,
{4}2h[8:1],{8}2,2h[8:1],{16}E4,E5,2/E6,E7,2h[8:1]/E8,E1,{8}E2f,
,2,1,8,{4}6h[8:1]/5h[8:1],4h[8:1]/3h[8:1],
{8}1/8-5[8:1],2,8/3,4,8/4-1[8:1],7,4/6,5,
2pp4[8:1],8,2/7,6,2/6pp8[8:1],3,6/4,5,
2h[4:1]/1h[4:1],,,3/8,3/8,7/4,7/4,5/6h[8:1],
{16},4,5,4,5x,6x,7x,8x,{4}1bx-4b[8:1],8b-5b[8:1],
{8}3,{16}3,2,{8}1,8h[8:1],4,7h[8:1],3,6h[8:1],
2,{16}5,4,{8}5,3,4/5,6/2b,{4}7/2b,
{8}2b-5[8:1],,,7,7b-4[8:1],1b,{4}1b,
{2}8bh[4:1]/1bh[8:3],{8}1b-4b[8:1]/8b-5b[8:1],8/1,{4}1/8,
{8}6/3,7,2/8,1h[8:1],,1/7,2,8/3,
{4}4h[8:1],{8}3/1,8,5/7,4,{4}6h[8:1],
{32}3x,4x,{16}5xh[16:3],{32},,,,,,,,8x,7x,{16}6xh[16:1],{32}4x,3x,{16}2xh[16:1],{8}7b,{4}7b,
{32}1x,2x,{16}3xh[8:1],{32},,7x,6x,{8}5xh[8:1],{32}2x,3x,{16}4xh[16:1],{32}6x,7x,{16}8xh[16:3],{8}3b,{4}3b,
{8}4/6,3,5/2,1h[8:1],,8/2,7,1/6,
{4}5h[8:1],{8}6/4qq8[8:3],4,5,6,{4}7,
{8}4/2h[4:1],5,6,7/3h[8:1],8h[4:1],2b,2b,1,
1/8,7/2,6/3,5/4,,5,{4}4<4[8:31],
{16}4/E1,,,E8,,,{8}E7,{16}E5,,,E4,,,{8}E3,
{16}E7,,,E6,,,{8}E5,{16}E3,,,E2,,,{8}E1,
{16}E5,,,E6,,,{8}E7,{16}E1,,,E2,,,{8}E3,
{16}E7,,,E8,,,{8}E1,{16}E3,,,E4,,,{8}E5,
6/5,7/4,8/3,2/1,,6b,{4}6b,
{8}2/1,3/8,7/4,6/5,,2b,{4}2b,
{2}1h[4:1]/8h[4:1],{16}1-4[8:1],8,1,8,{4}1,
6/3,{16}5/4,,,4,5-8[8:1],4,5,4,{4}5,
{2}2h[4:1]/7h[4:1],{16}7/2,,,6,{8}3,5b/4b,
,6b/3b,,7b/2b,1>3[8:1]/8<6[8:1],8/1,{4}8/1,
5h[8:1]/4h[8:1],3h[8:1]/6h[8:1],{8}7/2h[8:1],6b,6b,1h[8:1],
{16}6h[16:3],,,2h[16:3],,,{8}5h[8:1],3h[4:1],6b,6b,{16}4,5,
,,6,5,{8}6,{16}3,4,{8}3,2/5,{4}5/2q6[8:1],
{8}2,8,7,6,4,3,2>6[4:1],1,
{4}7h[8:1],{8}7,7h[8:1],{16}E6,E5,7/E4,E3,7h[8:1]/E2,E1,{8}E8f,
,7,8,1,{4}3h[8:1]/4h[8:1],5h[8:1]/6h[8:1],
{8}5/2-6[8:1],6,7,8,4/8-4[8:1],3,2,1,
1/6-2[8:1],2,3,4,7/3-7[8:1],6,5,4,
7h[4:1]/8h[4:1],,,6/1,6/1,2/5,2/5,4/3h[8:1],
{16},,4,5,4x,3x,2x,1x,{4}8bx-5b[8:1],1b-4b[8:1],
{8}6,{16}6,7,{8}8,1h[8:1],5,2h[8:1],6,3h[8:1],
7,{16}4,5,{8}4,6,5/4,3/7b,{4}2/7b,
{8}7b-4[8:1],,,2,2b-5[8:1],8b,{4}8b,
{2}1bh[4:1]/8bh[8:3],{8}8b-5b[8:1]/1b-4b[8:1],1/8,{4}8/1,
{8}3/6,4,5/2,1h[8:1],,8/2,7,1/6,
{4}5h[8:1],{8}4/2,6,7/5,4,{4}6h[8:1],
{8}5/3,6,4/7,8h[8:1],,1/7,2,8/3,
{4}4h[8:1]/5h[8:1],3h[8:1]/6h[8:1],{8}1/7-3[8:1],2b,{4}2b,
{8}5/2,6,4/7,8h[8:1],,1/7,2,8/3,
{4}4h[8:1],{8}3/5pp1[8:3],5,4,3,{4}2,
{8}4/6,{16}5,3,5,3,5,3,6-2[8:1],4,6,4,{4}6b,
{8}8/3,3/8,3/8,2h[8:3]/1h[8:3],
E
