&title=キラー
&artist=夏代孝明 feat.MORE MORE JUMP!× 镜音铃
&first=2.11
&des_5=Saki
&lv_5=14
&des=Saki
&inote_5=(196){8}6/4,6h[8:1]/4h[8:1],,,5/3,5h[8:1]/3h[8:1],,5h[8:3],
,4,4,4,{4}4-1[8:1],4b,
{8}6/4,8,5/3,1,7/4,2h[4:1],,5h[4:1],
{16},,3,4,{8}2,6-1[8:1],4-8[8:1],6,{4}4,
{8}5h[8:5],4,3,2,,6h[4:1],,7h[4:1],
{16},,1,8,2,7,3,6,4,5,3,6,{4}2,
{8}5/6,1,2/4,7,4/6,1h[4:1],,8h[4:1],
{16},,4,4,{8}6,2-6[8:1],1-5[8:1],2,{4}1,
{16},,7-4[8:1],8,7,8,{8}7,{16},,2,1,{8}2h[8:1],6h[4:1],
{16},,5,7,4,8,3,1,{4}2h[4:1],8b,
8-4[4:1],{8}3,3,{4}2,{8}1>4[8:3],1,
5,6,7,8,,2,2V84[8:5],2,
{4}2,{8}7-4[8:1],7,{4}7,{8}2,8,
1-5[8:1],7-3[8:1],1,7,{16},,,,,,,8<5[8:3],
,8,,8,,8,,,,2-4[8:1],,1-5[8:1],,2,,1,
,8-2[8:1],,7-3[8:1],,8x-4[8:1],,7x-5[8:1],,8x-3[8:1],,7x,,8x,,,{4}5xh[4:1],
B1/E2/B2,6h[4:1],{8}1,2,
6/3,2,5/1,2h[4:1],,B8/B7,{4}B6/B5,
7h[4:1],4h[4:1],8h[4:1],5h[4:1],
3h[4:1],2h[2:1],{12}6x,5x,4x,5x,{24},,,,{8}4/6h[8:1],
4,4/5h[8:1],4,4/2h[8:1],4,4/1h[8:1],4,
5/3h[8:1],5,5/4h[8:1],5,5/7h[8:1],5,5/8h[8:1],5,
{4}5h[2:1],{8}2-5[8:1],2,{4}2,{8}6,6h[4:1],
,5-2[8:1],3,7v4[8:1],8,1-5b[8:1],2,1,
,6,{4}6h[4:1],1bv3[8:1],{8}1,8h[8:1],
,4-1[8:1],4-7[8:1],4x,{2}4x,
{8}6h[8:3],{16},,,,4,5,{8}3h[8:3],{16},,,,5,4,
{2}6h[2:1],{8}3h[8:3],{16},,,,5,4,
{8}6h[8:1],{16}4,5,{8}3h[8:1],{16}5,4,{8}7h[8:1],{16}4,6,{4}2h[4:1],
{8}8x,{16}3,4,{8}2x,{16}6,5,{8}7x,{16}3,5,{8}1x,{16}6,4,
{8}8x,{16}2,8,2,8,2,8,3,7,3,7,3,7,4,6,
4,6,4,6,3,7,2,8,2,8,,,{8}8/2,3,
6/4,{16}7,1,{8}7,2,5/3,{16}2,1,{4}2h[8:1],
8b<5b[8:1]*>3b[8:1],8bw4b[8:1],{2}8b,
{8}1-5[8:1],1,7-4[8:1],7,3-8[8:1],3,6-2[8:1],6,
,4,{4}4w8[8:1],{8}4b,,,5,
2,{16}7,8,{8}6,1h[4:1],,5,,6b/8b,
4b/2b,7b/5b,1b/3b,7b/2b,,7h[8:1],4h[8:1],5h[8:1],
{4}1h[4:1],{8}6h[4:1],{16}4,3,{4}2h[4:1],5q1[8:1],
{8}5/3-8[8:1],4,3/6-2[8:1],7,6/4v1[8:1],3,4/8-5[8:1],7,
{4}8,{8}1,1h[4:1],,5<4[4:3],5,5,
5,5,5,5,,8-5[8:1],8,8,
2-5[8:1],2,6-1[8:1],6,3-8[8:1],3,7-4[8:1],7,
2,2h[4:1],,6p1[8:1]*v1[8:1],,6,,4h[8:5],
,,{4}5<8[8:1],5,8x-5b[8:1]/1-4b[8:1],
8b>4b[8:1]/1b<5b[8:1],8b-4b[8:1]/1b-5b[8:1],{2}1b/8b,
{8}4/6,{16}2,1,{8}2,5/3,{16}7,8,6,8,{8}7,4/3,
2,2h[2:1],,8-5[16:1],,8b,,5x<4[0.1531##2.1429],
{1}5,
{16},,,,,,,,,,,,,,,,1,
8,2,8,3,7,4,6,4,5,3,4,2,5,1,6,
8,7,8,7,1,6,1,6,2,5,2,5,3,4,3,4,
{1}3>4[8:5],
{16}A8,A7,A6,A5,A1,A2,A3,A4,B7,B6,B5,B2,B3,B4,,,{8}8-4[8:1],
8,1-5[8:1],1,6-2[8:1],6,4-1[8:1],4,
7-4[8:1],8-3[8:1],7x,8x,,6,{4}6,
{8}3/7<4[8:1],8,7/2-5[8:1],3,2/6-1[8:1],7,6/4-1[8:1],3,
4/7v2[8:1],6,7/3-6[8:1],4,,,,,5/6,
7,6/4,8,3/5,2,4/3,1,
5/6,1/8,4/3,8/1,,,5/6-1[8:1],7,
6b/4,{16}2,3,{8}4,6,5/1,{16}8,7,{8}8,6,
{4}1/2-5[8:1],2b/8,1/2-5b[8:1],{8}2b/8,7-4[8:1],
7,7/2-5[8:1],2,2/6-1[8:1],6,6/3-8[8:1],3,3,
6-1[8:1],5-2[8:1],6x,5x,,,,7-4[8:1],
4<6-1[8:1],7,2,3v8[8:1],4,7-4[8:1],6,2-5>4-1[8:3],
3,6-1[8:1],7,6,,,,,6/8,
5,3/4,2,7/8,6,2/1,3,
7/8,6/5,4/3,2/1,,,8/2>5[16:1],6,
2b,{16}7,8,{8}7-4[16:1],1,7b,{16}1,2,{8}3,6,
{4}1b/E6,E7/2b-6[8:1],{16}2b/B2f,C,{8}B6,,,6/4,
8/2,4/3,1,7/4,2h[4:1],,5h[4:1],
{16},,3,4,{8}2,{16}6,4,6,4,7,3,{4}8b,
{8}4h[8:1],{16}6,5,{8}7,3h[4:1],,2h[4:1],,1h[4:1],
{16},,8b,7,6,5,4/8b,1,2,3,5b/4,6,{4}7,
{8}5/6,1/2,3/4,7/8,3h[8:1],6h[4:1],,C,
{16},,4,4,{8}8-5[8:1],{16}2,2,{8}8-3[8:1],{16}4,4,{4}8,
{16},,7,8,7,8,{8}7h[4:1],{16},,2,1,{8}2,8h[8:3],
{16},,1,2,{8}3h[4:1],{16}7,6,{2}5h[4:1],
E
