&title=发发发发现象
&artist=Chinozo
&first=0.04
&des=Chino
&des_5=Chino
&lv_5=13
&inote_5=(146){4},,,,{32}E3,
E4,,,,,,,E7,E6,,,,,,,E4,E5,,,,,,,E6,E5,,,,,,,{2}Ch[4:1],
{8}2,3,4,5,
{4}4/6<1[8:1],4,4/1<6[8:1],4,
5/4pp1>3[8:3],8,8,{8}6,2,
{2}1x>4[8:1]/4x<7[8:1],8<5[8:1]/5>2[8:1],
1>4[8:1]/4<7[8:1],{4}5/8<5[8:1],{16}4x,3x,2x,1x,
{4}4xh[8:1]/8x>3[8:1],4h[8:1],4h[8:1]/3x>8[8:1],4h[8:1],
{8}1/5,{16}3,4,{8}3,1/7,6/5,4,3/5,6,
{4}8/7<3[4:1],3>7[4:1],7<3[4:1],{8}3,2,
{4}1-5[8:1],4>5[2:1],{2}Cf,
{4}1h[8:1],2h[8:1],3h[8:1],4b,
{64}5/7h[2:1],{4},,{32},{64}B2/B3,,,{32}D3,{96},,,,,,,,,,,,{12}7x,7x,7x,
{32}3x>7[4:1],,,,,C,,,,,,,,,,,{4}5x,1xh[16:3],
{12}7x<3[2:1],B2,,{4}C,{2}1xh[4:1],
{4}7v8[8:1],5pp5b[4:1],{16},,A4,D4,A3,,,5x,
{2}1xh[2:1],7p1[4:1],
{4}B4/E4,2h[4:1],8>6[2:1],7,
{8}5xh[4:1],{16},,,,A4,D4,{48},,{24}A3,,,,,{4}3,
{16}4/2,,,6,5,,,3,{2}4-8[8:1]*-7[8:1],
{4}1/6-4[12:1],6/2h[4:1],{16}7-4[8:1],,,8,{8}7,1,
{4}2-5[8:1],{8}2/1,8,{16}6-1[8:1],,,5,{8}6,4,
{16}2-4[12:1],,,1,{8}2,8,{16}7-3[8:1],,,8,{8}7,1,
{16}2-8[12:1],,,3,{8}2,4,5,8/6,7/1,8/2,
{64}3/1w5[16:1],,,,,,,,,,,,,,,,,B1,C,B5,,,,,,,,,,,,,{16}7/3h[16:3],,,6,{8}5,3,
{4}4V28[4:1],{8}8,6,{16}4-6[12:1],,,1,{8}4x,2,
3/1,3,5/7,7,3/5,{16}5,4,{8}5,6/5,
{4}4/7-3[8:1],{8}7/1-4[8:1],2,{4}1/6-1[8:1],6/2>2[1:3],
{1}2b/8h[4:3],
7h[4:3],
6h[4:3],
{8}5,4/6,7-4-1[16:5]/3-6-1[16:5],3/7,,,,,4b/8,
{16}5,7,{8}4b,5/6,4b/8,{16}5,7,{8}4b,5/6,
4b/8,3/7,2/6-8[12:1],5/1,2-5[8:1],3,2/7-4[8:1],6,
7/8-3[8:1],2,8/5x>6[4:1],6,{2}2xh[4:1],
{8}7-4[8:1]/8-3[8:1],1/6,{4}7/8>6[4:1],{8},E8/B7,{4}E8/B7,
{8}4b/8,{16}5,7,{8}4b,5/6,4b/8,{16}5,7,{8}4b,5/6,
4b/8,{16}3,1,{8}2>5[8:1],8,7/2<7[8:1],6,5x,4,
{4}7x>2[8:1]/3x<6[8:1],3x/7x-3[8:1],4x-8[8:1],{8}5,6,
{4}7x<4[8:1]/1x>4[8:1],7/1,B4/Cf/B3/B5,8/7h[4:1],
6<1[8:1],{8}5,4>1[8:1],,5,{4}6,
{8}1/8<5[8:1],C,1>4[8:1],C,,,{4}8/7h[4:1],
6<1[8:1],{8}5,4>1[8:1],,5,{4}6h[4:1],
{8}7,8/5,{4}4/1-4[8:1],{8}1x,E8/B7,{4}3h[4:1]/E8/B7,
7<4[8:1],{8}8,1>4[8:1],,8,{4}7,
{8}4/5<8[8:1],C,4>1[8:1],C,,,{4}5/6h[4:1],
2>5[8:1],{8}1,8<5[8:1],,1,{4}2h[4:1],
{8}1,3/4,6/5,7/8,{2}1-5[8:1]/2-6[8:1],
{4}8/4h[2:1],7,{8}8x,1x,2x,3x,
{4}4pp4[8:3]*qq4[8:3],,,4b,
6<2v4b[8:3],,,4x,
{16}8h[16:3],,,7h[16:3],,,{8}6,{16}1h[16:3],,,2h[16:3],,,{8}3,
{4}4x-8-4[8:3]/5x-1-5[8:3],,,7<3[4:1],
{16}3q8[4:1],,,2,,,{8}2,,1,{4}2>5[4:1],
{16}5p8[4:1],,,7,,,{8}7,,6,{4}7,
{16}5/6h[8:3],,,4,,,{8}3h[4:1],,4,{4}4h[4:1],
{2}Cfh[2:1],8bxh[2:1],
{16}4b,,,5,{8}4b,5,4b,5,4b/5,5,
{48},4b/5,,,,,,4b,,,{24}5,{48},4b,,,,,,4b,,,,,,4b/5,,,,,,4b,,,,,,4bx/5,,,,,,3bx,,,,,,2bx/4,
,,,,,1bx/A8,{16},{64},,,{192},{64}E7,E6,{16}E5,{48},B2,{192},,,,,,,,,,,,,,,,,,,{64}A3,D4,A4,,,,,,,,,,,,,,B5,,,,,,,,,,,,C,,,,,{32}B1,
{96},,,,,,,,,,,,,,,,{48}B7,,,,,,,,,{12}D2,{192},,,{64}E3,,,,,,,{8}B5/E5,{16},,,,4bx/5,
,,5,{8}4bx,5,{16}5/4bx,,,5,{8}4bx,5,
5/4bx,{16}4bx,5bx,{8}4bx,5/4bx,4bx,5/4bx,6/4bx,7/3bx,
{4}8/2b-6-3[4:1],{8}1,8,{4}7-4-8[4:1],{8}3,2,
1-5[8:1],1,8,7,6/4,3,2/1,1/8,
7h[4:1]/8h[4:1],,,8/7,{2}7h[4:1]/8h[4:1],
{8}3h[4:1]/4h[4:1],,,4/3,{2}3h[4:1]/4h[4:1],
{8}5h[4:1]/4h[4:1],,,4/5,{2}5h[4:1]/4h[4:1],
{8}1/8,2/7,3/6,4/5h[4:1],,E5,,,{4}1/5<2[4:3],
2,3,4,
5>8[4:3],1,8,7,
6z2[16:9],1,1,1-5[8:1],
{8},6,5/7,3,4v7[8:1]/2v7[8:1],2/4,{16},,,,8-4[2:1],
,,7,,,{8}1,,,,,{4}4,
4,4w8b[8:1],4,
{8}6b/2b>5[8:1],1,2/7-3[8:1],6,7/4-1[8:1],5,4/6-1[8:1],7,
6/5-2[8:1],3,5/8x>6[4:1],7,{2}3h[4:1],
{8}5>2[8:1]/6p2[8:1],4/7,,,{2}2xp6[8:1]/1x<6[8:1],
{8}4b/2,{16}3,8,{8}4b,6/5,4b/2,{16}3,8,{8}4b,6/5,
{4}1q5[8:1]/5q1[8:1],5>2[8:1]/1<6[8:1],{8},,1x/5x,4x/8x,
{4}7x/3x-7[8:1],{8}1,2,{4}3-7[8:1],{8}4,5,
{4}6bx<1[8:1],6bx>3[8:1],6bxw2[8:1],6bx,
{32}3x/2xh[8:1],4,5,6,,,,,6/7h[8:1],5,4,3,,,,,3/2h[8:1],4,5,6,,,,,6/7h[8:1],5,4,3,,,,,{8}2-4[8:1]/1-5[8:1],
8,{4}1/2-6[8:1],{8}1/2V48[16:3],8,7<1>7[2:1],6,
{4}7,7b,{8}1,2,7/3>5[4:1],6,
{4}3/5<3[4:1],3b,5w1[8:1],A5f/D6/D5,
{32}6x/7xh[8:1],5,4,3,,,,,3/2h[8:1],4,5,6,,,,,6/7h[8:1],5,4,3,,,,,3/2h[8:1],4,5,6,,,,,{8}1b/5,
{16}2,4,{8}3>8[8:1],5,6/3<6[8:1],7,8x,1,
{4}6bx>3[8:1]/2bx<7[8:1],6x/2x-6[8:1],1-5[8:1],{8}8,6,
{4}4>1[8:1]*<7[8:1],4w8[8:1],4b,8x/1xh[4:1],
2<7[8:1],{8}3,4<7[8:1],,3,{4}1,
{8}7/8>3[8:1],C,7<4[8:1],C,,,{4}1x/8xh[4:1],
7>2[8:1],{8}6,5>2[8:1],,6,{4}8,
{8}1b/6,{16}3,4,{8}2b/5,1/8,4b/6,8/7,6-3[8:1]/2-7b[8:1],1/5,
{4}2b/6b,{8}1,2>5[8:1],,8,{4}7,
{8}6x>3[8:1],C,2x<7[8:1],C,,,{4}4x/5xh[4:1],
6>3[8:1],{8}7,8>3[8:1],,7,{4}5,
{8}7b/8,7/1,7/2,7/3,7/4,7/5,7/6,7/8,
1b/8,2/4,8/1,7/5,1bx/8bx,2bx/3bx,5bx/4bx,{64}6bx-3b[8:23],7bx-2[16:1],
E
