&title=雨夢楼
&artist=ひとしずくP
&first=1.16
&des=Kissing unceasing rain, adoring grace eternally
&lv_5=13+
&inote_5=(152)
{1},
{16}2h[8:5],,,,5,,6>4[8:1],,,,,,,,1<5[8:3]/4,,
,,,,5>1[8:3],,,,8h[4:1],,,,,,,,
8xh[4:1]/6<5qq7[4:5],,,,,,1xh[4:1],,,,,,,,2xh[8:2],,
,,,,,,3x,,,,,,48,,,,
3h[4:1]/5,,,,1,,8<5[8:1]/2,,,,3>8[8:1],,,,4-8[8:1],,
,,,,3<6[8:1],,,,8>3[8:1]*<6[8:1],,,,,,,,
7<4[8:1]/4,,3,,2,,1s5[8:2],,,,5>8z4b[8:5],,,,,,
7h[4:2],,,,,,,,,,,,2hx[4:1]/6,,,,
4xh[16:3],,,3,5,,1x>4[8:1]/4x<7[8:1],,,,,,,,6x,,
5xh[16:3]/3x,,,4,6,,7xp2[8:1]/5x>2[8:1],,,,,,,,8x,,
1>4[8:1]/7,,,,6,,,,5p8[8:1]/6,,,,8,,,,
6>3[8:1]/1,,,,2,,,,1q5[8:1]/5q1[8:1],,,,,,,,
1/3h[4:1],,,,5,,1>4[8:1]/7,,,,6<1[8:1],,,,3,,
5-1[8:1],,,,7,,6,,5<8[8:1]/1,,,,2,,3,,
4V28[6:1]/8,,5,,6,,7v6-4[4:1],,,,3h[4:1],,,,,,
2/5q2[8:1],,,,3,,,,1p4[8:1]/4,,,,3,,,,
1h[16:3]/6,,,8,2,,3q8[8:1]/7<4[8:1],,,,,,,,1,,
2h[16:3]/4,,,5,1,,3>8[8:1]/7q4[8:1],,,,,,,,6,,
2>5[8:1]/8,,,,6,,,,5p8[8:1]/6,,,,8,,,,
7>2[8:1]/3,,,,4<7[8:1],,,,8w4[8:1],,,,,,,,
1-4[4:3],,,,,,,,E8,,,,,,,,
E7,,,,E6,,,,E5,,,,,,,,
8-5[4:3],,,,,,,,E2,,,,,,,,
E3,,,,E4,,,,E5,,,,,,,,
5<1[4:2],,,,,,,,1V74[4:2],,,,,,,,
4q5[4:2],,,,A3,,,,A2,,,,A1,,,,
6-1-4[4:2],,,,,,,,4-1-6[4:2],,,,,,,,
6qq7[4:2],,,,Ch[4:2],,,,,,,,,,,,
2h[4:1]/E8/E7,,,,,,,,7h[4:1]/E4/E3,,,,,,,,
2xp6p2[8:4]*q6q2[8:4]/C,,,,,,,,,,,,,,,,
6x-4[8:1],,,,,,,,7x-4[8:1],,,,,,,,
7xp3p7[8:4],,,,,,,,,,,,,,,,
5xh[4:1]/7xh[4:1],,,,,,,,2xh[4:1]/4xh[4:1],,,,,,,,
8xp4[8:1]/7x<4[8:1],,,,,,,,1xq5[8:1]/2x>5[8:1],,,,,,,,
3x-8-2-5[4:2]/7x-4-6-1[4:2],,,,,,,,,,,,,,,,
7xh[4:1]/B3,,,,,,,,1xw5[8:1]/8x,,,,,,,,
2-5[8:1],,1,,2,,7-4[8:1],,8,,7,,1-5[8:1],,8,,
1,,6<1[8:1],,5,,4pp6[8:1],,,,5,,,,2,,
1xh[16:1],,6h[16:1],,2h[8:1],,7h[8:1],,3h[8:1],,5h[4:1],,,,3x>7[4:1],,
,,7x<5-2[4:1],,,,2x>4-7[4:1],,,,,,,,8,,
17,,2,,3qq6b[8:4]/4,,5,,6xh[8:2],,,,,,7h[8:2],,
,,4,,3x>6[8:3]/5xp4[8:3],,,,,,,,,,,,
1x/2xV46b[4:1],,,,6V82b[4:1],,,,2>2[4:2]*>6[4:1],,,,6V82V46[4:2],,,,
,,,,,,,,8,,7,,{32}1x/6x,D1,A8,D8,A7,D7,A6,D6,
{16}
A5/8xh[4:1],,,,1,,2,2,6,4,7,5,8,2,7,1,
6h[8:1],,5,,18,,3/4,3,{32}7x,6x,5x,4x,3x,2x,1x,8x,{16}7xb-4[8:1]/3xb-8[8:1],,,,
3b/7b,,,,56,,4>1[8:1]/8<5[8:1],,,,4-8-6b[4:1]/8,,,,34,,
2-5[8:1]*-4[8:1],,,,2-8[8:1]*-7[8:1],,,,2,,,,34,,2,,
1>3-7b[4:1]/7<5-1b[4:1],,8,,1-4[8:1]/7-4[8:1],,,,,,,,2x/8x,,3,,
4-2[8:1]/7-4[8:1],,,,4-1b[8:1]*-8b[8:1]/7,,,,4x,,,,26,,3,5,
4pp4[4:1]*qq4[4:1],,35,,4x,,,,,,5xh[8:1]/3xh[8:1],,,,6,5,
7<5-1[4:1]*-4>2[4:1],,8,,7,,,,,,6x/4x,,25,,6,5,
7x>2[8:1]*-2[8:1],,,,7x<4[8:1]*-4[8:1],,,,7-3b[8:1],,,,1V38b[4:1]/7,,2,,
1/4hx[4:1],,,,{24},A5/B5,A6/B6,{16}A7/B7,,2x,1x,3,8,4,7,5,6,
3xV52[4:1],,,,35,,8-4[8:1],,,,1/8,,,,2,4,
3>6[4:1],,,,35,,,,4x-7-2[4:1],,,,42,,3,,
4>1[8:1],,7<4[8:1],,4-8-6-1[8:3],,7,,,,2,,3,,4,,
3p6[8:1]/8,,,,5<4[4:1]/3,,,,{32}E5,E6,E7,E8,E1,E2,E3,E4,{16},,7xh[16:1],,
2x-5[8:1],,5>3-8[4:1],,2,,8-4[8:1],,,,{32}D7,A6,{16}D6,,,7x,8,
7-4[8:1],,4<6-1[4:1],,7,,1-5[8:1],,,,3,,2,,3,4,
2h[16:3],,,1,3,,4h[4:1]/6pp3[8:3],,,,,,3x,,2x,,
1xw5[8:1],,,,1x,,,,{32}B2,B3,B4,B5,B6,B7,B8,B1,E3,E4,E5,E6,E7,E8,E1,E2,
{16}
7x<6>5>4>3>2<1<8<7b[4:14],,,,,,,,,,,,,,,,
B7/E7/B6,,,,,,,,8xz4[4:8],,,,,,,,
,,,,,,,,,,,,,,,,
,,,,,,,,,,,,,,,,
8x>1>2>3<4<5<6<7>8b[4:14]/1x,,,,,,,,,,,,,,,,
B2/E3/B3,,,,,,,,6xz2[4:8],,,,,,,,
,,,,,,,,,,,,,,,,
,,,,,,,,,,,,,,,,
4x-2-8-6>4>2<8<6b[4:14],,,,,,,,,,,,,,,,
B4/B5,,,,,,,,4xs8z4[4:8],,,,,,,,
,,,,,,,,,,,,,,,,
,,,,,,,,,,,,,,,,
6p4b[4:3]/1hx[4:1],,,,,,,,2hx[4:1],,,,,,,,
3>6b[4:2],,,,E6/D6,,,,E5/D5,,,,E4/D4,,,,
2-5b[8:1]/1h[4:1],,,,,,,,7-4b[8:1]/8h[4:1],,,,,,,,
2x-8z4z8b[4:3]/7x-1s5s1[4:3],,,,,,,,,,,,,,,,,,,,
6h[4:1]/4,,,,5,,8<5[8:1]/4>1[8:1],,,,4V61-5b[8:3]/8,,,,2h[8:2]/4x,,
,,,,3h[4:1],,,,6<2[8:1]*q2[8:1],,,,,,,,
3h[4:1]/5,,,,4,,1>4[8:1]/5<8[8:1],,,,5-2-8-4b[8:3]/1,,,,8/5x,,
6h[4:1],,,,,,,,1>5[8:1]*q6[8:1]/8,,,,,,,,
7h[4:1]/5,,,,8,,1-5[8:1]/6,,,,1-6-8[4:1]/5-2-4[4:1],,,,1x/5x,,
,,,,2/6h[4:1],,,,4-1[8:1],,7-4b[8:1],,4<2[4:1],,7,,
3x,,,,4>6b[4:1],,,,6x,,,,5-7-1-3[4:1],,,,
3x>5b[4:1],,,,4,,,,1>4[8:1],,,,{32}D8,A7,D7,A6,D6,,,,
{16}
2h[4:1],,,,4h[4:1],,,,8>5[4:1],,,,5<2[4:1],,,,
2>7[4:1],,,,C,,,,{32},D8,A8,D1,A1,D2,A2,D3,A3/8xb-4b[8:1],,,,,,,,
{16}
3b/8b,,,,56,,4>1[8:1]/8<5[8:1],,,,4-8-6b[4:1]/8,,,,24,,
1>4[8:1]*-4[8:1],,,,1<6[8:1]*-6[8:1],,,,1,,,,34,,16,,
2/8-4-2b[4:1],,7,,6/8,,5-1-3b[4:1],,,,58,,7,,6,,
2>5[8:1]/5<8[8:1],,,,5pp6[8:1]*qq4[8:1],,,,5x,,,,2x/8x,,3,5,
1q5>2[4:1]*p5<8[4:1],,28,,1x,,,,,,3xh[8:1]/5xh[8:1],,,,6,4,
8-4>2[4:1]*<5-1[4:1],,17,,8x,,,,,,4x/6x,,38,,6,4,
8x>3[8:1]*-3[8:1],,,,8x<5[8:1]*-5[8:1],,,,8-4b[8:1],,,,1V38b[4:1]/8,,2,,
1/7hx[4:1],,,,{24},A6/B6,A5/B5,{16}A4/B4,,2x,1x,3,8,4,7,5,6,
3xV52b[4:1],,,,35,,8-3[8:1]*-5[8:1],,,,8,,,,1,7,
3>6b[4:1],,,,35,,,,4x-7-3b[4:1],,,,43,,2,,
1>4b[8:1],,6<1b[8:1],,1-5-7-4b[8:3],,6,,,,3,,2,,1,,
3p6b[8:1]/8,,,,5<4b[4:1]/3,,,,{32}E5/D5,E6/D6,E7/D7,E8/D8,E1/D1,E2/D2,E3/D3,E4/D4,{16},,7x,7x,
3x-6b[8:1],,6>3-8b[4:1],,3,,8-4b[8:1],,,,{32}A7/B7,A6/B6,{16}A5/B5,,,2,2,
6x-3b[8:1],,3<6-1b[4:1],,6,,1-5b[8:1],,,,3,,2,,3,7,
1h[16:3],,,5,2,,4hb[4:1]/6pp3b[8:3],,,,,,3x,,2x,,
1xw5b[8:1],,,,1xb,,,,{32}A5/B5/2bx,E6,A6/B6,E7,A7/B7,E8,A8/B8,E1,A1/B1,E2,A2/B2,E3,A3/B3,E4,A4/B4,E5,
{16}
(141.5)
8xqq5b[4:3],,,,,,,,,,,,,,,,
4xqq1b[4:3],,,,,,,,,,,,,,,,
6x>4v5>3b[4:3],,,,,,,,,,,,,,,,
2x>4q5b[4:3],,,,,,,,,,,,,,,,
8xqq1b[4:3],,,,,,,,,,,,,,,,
4xqq5b[4:3],,,,,,,,,,,,,,,,
(126)
8x<1b[4:3],,,,,,,,,,,,,,,,
5xw1b[4:7],,,,,,,,,,,,,,,,
,,,,,,,,,,,,,,,,
,,,,,,,,,,,,,,,,
,,,,,,,,,,,,,,,,
